Search

Thug Life 2017 HDRIP Punjabi GOPISAHI

Title: Thug Life
Year: 2017
Votes: 17
Rating: 7.8/10
Language: Panjabi
Country: India
All Genres: Comedy
Plot Outline: Its the story of three boys they want to make money with the help of shortcut
Director: Mukesh Vohra
Writing By: Dheeraj Kumar,Karan Sandhu,Akshay Singh,Mukesh Vohra
Produced By: Inderpal Singh,Simranjot Singh,Charanjit Singh Walia,Tegbir Singh Walia
Music: Bhinda Aujla Deep Jandu Jatinder Shah 
Cast:
Harish Verma as MLA 
Jass Bajwa as Jass 
Rajiv Thakur as Palli 
Ihana Dhillon as Ruchi 
Karamjeet Anmol as Ustaad Surile Khan 
Yograj Singh as MLA's Father 
Anita Devgan as MLA's Mother 
Hardeep Gill as JASS's Father 
Hobby Dhaliwal as Chief Minister 
Vrajesh Hirjee as Dj Fukra 

Format                         : Matroska
Format version                 : Version 4 / Version 2
File size                      : 460 MiB
Duration                       : 1 h 48 min
Overall bit rate               : 596 kb/s
Movie name                     : Thug Life 2017 HDRIP Punjabi GOPISAHI

Video
Format                         : AVC
Codec ID                       : V_MPEG4/ISO/AVC
Duration                       : 1 h 48 min
Bit rate                       : 500 kb/s
Width                          : 720 pixels
Height                         : 406 pixels
Display aspect ratio           : 16:9
Original display aspect ratio  : 16:9
Frame rate mode                : Constant
Frame rate                     : 23.976 (24000/1001) FPS
Stream size                    : 386 MiB (84%)
Title                          : GOPISAHI
Writing library                : x264 core 155 r2893 b00bcaf
Language                       : Panjabi

Audio
Format                         : AAC
Duration                       : 1 h 48 min
Bit rate                       : 93.6 kb/s
Channel(s)                     : 6 channels
Channel positions              : Front: L C R, Side: L R, LFE
Sampling rate                  : 44.1 kHz
Frame rate                     : 43.066 FPS (1024 SPF)
Compression mode               : Lossy
Stream size                    : 72.3 MiB (16%)
Title                          : GOPISAHI
Language                       : Panjabi


 
 

Post a Comment

0 Comments