Search

Total_Recall 1990 UNCUT 720p Esub BluRay Dual Audio English Hindi GOPISAHI

Format                         : Matroska
Format version                 : Version 4 / Version 2
File size                      : 634 MiB
Duration                       : 1 h 53 min
Overall bit rate               : 780 kb/s
Movie name                     : Total_Recall 1990 UNCUT GOPISAHI

Video
Format                         : AVC
Codec ID                       : V_MPEG4/ISO/AVC
Duration                       : 1 h 53 min
Bit rate                       : 600 kb/s
Width                          : 1 280 pixels
Height                         : 692 pixels
Display aspect ratio           : 1.85:1
Frame rate mode                : Constant
Frame rate                     : 23.976 (24000/1001) FPS
Stream size                    : 487 MiB (77%)
Writing library                : x264 core 155 r2893 b00bcaf

Audio #1
Format                         : AAC
Duration                       : 1 h 53 min
Bit rate                       : 89.6 kb/s
Channel(s)                     : 6 channels
Channel positions              : Front: L C R, Side: L R, LFE
Sampling rate                  : 44.1 kHz
Frame rate                     : 43.066 FPS (1024 SPF)
Compression mode               : Lossy
Stream size                    : 72.8 MiB (11%)
Language                       : Hindi

Audio #2
Format                         : AAC
Duration                       : 1 h 53 min
Bit rate                       : 88.0 kb/s
Channel(s)                     : 6 channels
Channel positions              : Front: L C R, Side: L R, LFE
Sampling rate                  : 44.1 kHz
Frame rate                     : 43.066 FPS (1024 SPF)
Compression mode               : Lossy
Stream size                    : 71.5 MiB (11%)
Title                          : GOPISAHI
Language                       : English

Text
Language                       : English
 
 

Post a Comment

0 Comments