Search

Unleashed AkA Danny The Dog 2005 720p Esub BRrip Dual Audio English Hindi GOPISAHI

Format                               : Matroska
Format version                    : Version 4 / Version 2
File size                             : 840 MiB
Duration                              : 1 h 42 min
Overall bit rate                      : 1 143 kb/s
Movie name                       : Unleashed AkA Danny The Dog 2005 GOPISAHI
Encoded date                    : UTC 2017-08-06 08:34:54
Video
Format                         : AVC
Codec ID                       : V_MPEG4/ISO/AVC
Duration                       : 1 h 42 min
Bit rate                       : 927 kb/s
Width                          : 1 280 pixels
Height                         : 544 pixels
Display aspect ratio           : 2.35:1
Frame rate mode                : Constant
Frame rate                     : 23.976 (24000/1001) FPS
Stream size                    : 681 MiB (81%)
Writing library                : x264 core 120 r2164 da19765
Audio #1
Format                         : AAC
Duration                       : 1 h 42 min
Bit rate                       : 86.3 kb/s
Channel(s)                     : 6 channels
Channel positions              : Front: L C R, Side: L R, LFE
Sampling rate                  : 44.1 kHz
Frame rate                     : 43.066 FPS (1024 SPF)
Stream size                    : 63.5 MiB (8%)
Language                       : English
Audio #2
Format                         : AC-3
Duration                       : 1 h 42 min
Bit rate mode                  : Constant
Bit rate                       : 128 kb/s
Channel(s)                     : 2 channels
Channel positions              : Front: L R
Sampling rate                  : 32.0 kHz
Frame rate                     : 20.833 FPS (1536 SPF)
Stream size                    : 93.5 MiB (11%)
Language                       : Hindi
Text (0%)
Language                       : English
 
 

Post a Comment

0 Comments