Search

Vanquisher 2009 720p x264 Esub BluRay Dual Audio Hindi Thai GOPISAHI


Format                         : Matroska
Format version                 : Version 4 / Version 2
File size                      : 446 MiB
Duration                       : 1 h 32 min
Overall bit rate               : 671 kb/s
Movie name                     : Vanquisher 2009 GOPISAHI

Video
Format                         : AVC
Codec ID                       : V_MPEG4/ISO/AVC
Duration                       : 1 h 32 min
Bit rate                       : 500 kb/s
Width                          : 1 280 pixels
Height                         : 720 pixels
Display aspect ratio           : 16:9
Frame rate mode                : Constant
Frame rate                     : 23.976 (24000/1001) FPS
Stream size                    : 332 MiB (74%)
Title                          : GOPISAHI
Writing library                : x264 core 155 r2893 b00bcaf

Audio #1
Format                         : AAC
Duration                       : 1 h 32 min
Bit rate                       : 82.9 kb/s
Channel(s)                     : 6 channels
Channel positions              : Front: L C R, Side: L R, LFE
Sampling rate                  : 44.1 kHz
Frame rate                     : 43.066 FPS (1024 SPF)
Compression mode               : Lossy
Stream size                    : 55.1 MiB (12%)
Title                          : GOPISAHI
Language                       : Thai

Audio #2
Format                         : AAC
Duration                       : 1 h 32 min
Bit rate                       : 86.1 kb/s
Channel(s)                     : 6 channels
Channel positions              : Front: L C R, Side: L R, LFE
Sampling rate                  : 44.1 kHz
Frame rate                     : 43.066 FPS (1024 SPF)
Compression mode               : Lossy
Stream size                    : 57.3 MiB (13%)
Title                          : GOPISAHI
Language                       : Hindi

Text
Language                       : English
 
 

Post a Comment

0 Comments