Search

Venom 2005 720p Esub BluRay Dual Audio English Hindi GOPISAHI

[img]http://i.imgur.com/BKBcBbG.jpg
Format                         : Matroska
Format version                 : Version 4 / Version 2
File size                      : 711 MiB
Duration                       : 1 h 26 min
Overall bit rate               : 1 144 kb/s
Movie name                     : Venom aka Blackwater 2005 BluRay GOPISAHI
Encoded date                   : UTC 2017-08-09 09:48:35
Video
Format                         : AVC
Codec ID                       : V_MPEG4/ISO/AVC
Duration                       : 1 h 26 min
Bit rate                       : 965 kb/s
Width                          : 1 280 pixels
Height                         : 720 pixels
Display aspect ratio           : 16:9
Frame rate mode                : Constant
Frame rate                     : 23.976 (23976/1000) FPS
Original frame rate            : 23.976 (24000/1001) FPSve
Bits/(Pixel*Frame)             : 0.044
Stream size                    : 599 MiB (84%)
Writing library                : x264 core 146 r2538 121396c
Audio #1
Format                         : AC-3
Codec ID                       : A_AC3
Duration                       : 1 h 26 min
Bit rate mode                  : Constant
Bit rate                       : 96.0 kb/s
Channel(s)                     : 6 channels
Channel positions              : Front: L C R, Side: L R, LFE
Sampling rate                  : 44.1 kHz
Frame rate                     : 28.711 FPS (1536 SPF)
Stream size                    : 59.6 MiB (8%)
Language                       : English
Audio #2
Format                         : AAC
Duration                       : 1 h 20 min
Bit rate                       : 87.4 kb/s
Channel(s)                     : 6 channels
Channel positions              : Front: L C R, Side: L R, LFE
Sampling rate                  : 44.1 kHz
Frame rate                     : 43.066 FPS (1024 SPF)
Delay relative to video        : -250 ms
Stream size                    : 50.3 MiB (7%)
Language                       : Hindi
Text
Language                       : English