Search

WALL-E 2008 720p Esub BluRay 5.1 Dual Audio English Hindi GOPISAHI.BID



Format                         : Matroska
Format version                 : Version 4 / Version 2
File size                      : 477 MiB
Duration                       : 1 h 38 min
Overall bit rate               : 679 kb/s
Movie name                     : WALL-E 2008 GOPISAHI.BID

Video
Format                         : AVC
Codec ID                       : V_MPEG4/ISO/AVC
Duration                       : 1 h 38 min
Bit rate                       : 500 kb/s
Width                          : 1 280 pixels
Height                         : 528 pixels
Display aspect ratio           : 2.40:1
Frame rate mode                : Constant
Frame rate                     : 23.976 (24000/1001) FPS
Stream size                    : 351 MiB (74%)
Title                          : GOPISAHI.BID
Writing library                : x264 core 148 r2708 86b7198

Audio #1
Format                         : AAC
Duration                       : 1 h 38 min
Bit rate                       : 87.7 kb/s
Channel(s)                     : 6 channels
Channel positions              : Front: L C R, Side: L R, LFE
Sampling rate                  : 44.1 kHz
Frame rate                     : 43.066 FPS (1024 SPF)
Compression mode               : Lossy
Delay relative to video        : 17 ms
Stream size                    : 61.6 MiB (13%)
Language                       : Hindi

Audio #2
Format                         : AAC
Duration                       : 1 h 38 min
Bit rate                       : 88.4 kb/s
Channel(s)                     : 6 channels
Channel positions              : Front: L C R, Side: L R, LFE
Sampling rate                  : 44.1 kHz
Frame rate                     : 43.066 FPS (1024 SPF)
Compression mode               : Lossy
Stream size                    : 62.1 MiB (13%)
Title                          : GOPISAHI.BID
Language                       : English

Text
Language                       : English




Post a Comment

0 Comments