Search

Watchmen The Ultimate Cut 2009 720p Msub BluRay Dual Audio English Hindi GOPISAHI

http://i.imgur.com/asznA49.jpg
General
Format                         : Matroska
Format version                 : Version 4 / Version 2
File size                      : 1.18 GiB
Duration                       : 3 h 35 min
Overall bit rate               : 781 kb/s
Movie name                     : Watchmen The Ultimate Cut 2009
Encoded date                   : UTC 2017-07-23 09:34:27
Video
Format                         : AVC
Codec ID                       : V_MPEG4/ISO/AVC
Duration                       : 3 h 35 min
Bit rate                       : 519 kb/s
Width                          : 1 280 pixels
Height                         : 528 pixels
Display aspect ratio           : 2.40:1
Frame rate mode                : Constant
Frame rate                     : 23.976 (23976/1000) FPS
Original frame rate            : 23.976 (24000/1001) FPS
Stream size                    : 799 MiB (66%)
Writing library                : x264 core 146 r2538 121396c
Audio #1
Format                         : AAC
Duration                       : 3 h 24 min
Bit rate                       : 88.5 kb/s
Channel(s)                     : 6 channels
Channel positions              : Front: L C R, Side: L R, LFE
Sampling rate                  : 44.1 kHz
Frame rate                     : 43.066 FPS (1024 SPF)
Stream size                    : 130 MiB (11%)
Language                       : Hindi
Audio #2
Format                         : AAC
Duration                       : 3 h 35 min
Bit rate                       : 175 kb/s
Channel(s)                     : 6 channels
Channel positions              : Front: L C R, Side: L R, LFE
Sampling rate                  : 44.1 kHz
Frame rate                     : 43.066 FPS (1024 SPF)
Stream size                    : 269 MiB (22%)
Language                       : English
Text #1
Language                       : Arabic
Text #2
Language                       : English
Text #3
Language                       : Greek
Text #4
Language                       : Indonesian
Text #5
Language                       : Persian
Text #6
Language                       : Vietnamese
 
 

Post a Comment

0 Comments