Search

Werewolf In Bangkok 2005 x264 720p Esub HD Dual Audio Hindi Thai GOPISAHI

Format                         : Matroska 
Format version                 : Version 4 / Version 2 
File size                      : 423 MiB 
Duration                       : 1 h 28 min 
Overall bit rate               : 666 kb/s 
Movie name                     : Werewolf In Bangkok 2005 GOPISAHI 

Video 
Format                         : AVC 
Codec ID                       : V_MPEG4/ISO/AVC 
Duration                       : 1 h 28 min 
Bit rate                       : 500 kb/s 
Width                          : 1 280 pixels 
Height                         : 720 pixels 
Display aspect ratio           : 16:9 
Frame rate mode                : Constant 
Frame rate                     : 25.000 FPS 
Stream size                    : 317 MiB (75%) 
Title                          : GOPISAHI 
Writing library                : x264 core 155 r2893 b00bcaf 

Audio #1 
Format                         : AAC 
Duration                       : 1 h 28 min 
Bit rate                       : 88.5 kb/s 
Channel(s)                     : 6 channels 
Channel positions              : Front: L C R, Side: L R, LFE 
Sampling rate                  : 44.1 kHz 
Frame rate                     : 43.066 FPS (1024 SPF) 
Compression mode               : Lossy 
Stream size                    : 56.2 MiB (13%) 
Title                          : GOPISAHI 
Language                       : Thai 

Audio #2 
Format                         : AAC 
Duration                       : 1 h 28 min 
Bit rate                       : 75.0 kb/s 
Channel(s)                     : 6 channels 
Channel positions              : Front: L C R, Side: L R, LFE 
Sampling rate                  : 44.1 kHz 
Frame rate                     : 43.066 FPS (1024 SPF) 
Compression mode               : Lossy 
Stream size                    : 47.6 MiB (11%) 
Title                          : GOPISAHI 
Language                       : Hindi 

Text 
Language                       : English


Post a Comment

0 Comments