Search

Where Eagles Dare 1968 720p x264 Esub BluRay Dual Audio English Hindi GOPISAHI


iMDB
Title: Where Eagles Dare
Year: 1968
Runtime: 158 minutes
Votes: 44600
Rating: 7.7/10
Language: English, German
Country: UK, USA
All Genres: Action, Adventure, War
Plot Outline: Allied agents stage a daring raid on a castle where the Nazis are holding an American General prisoner... but that's not all that's really going on.
Tagline: They are going to win World War II this weekend...or die trying!
Director: Brian G. Hutton
Writing By: Alistair MacLean,Alistair MacLean,
Produced By: Denis Holt,Elliott Kastner,Jerry Gershwin,
Music: Ron Goodwin
Cast:
Richard Burton as Maj. Smith 
Clint Eastwood as Schaffer 
Mary Ure as Mary Ellison 
Patrick Wymark as Col. Turner 
Michael Hordern as Adm. Rolland 
Donald Houston as Christiansen 
Peter Barkworth as Berkeley 
William Squire as Thomas 
Robert Beatty as Carnaby 
Brook Williams as Sgt. Harrod 
Trailers:
Where Eagles Dare
Format                         : Matroska
Format version                 : Version 4 / Version 2
File size                      : 644 MiB
Duration                       : 2 h 35 min
Overall bit rate               : 580 kb/s
Movie name                     : Where Eagles Dare 1968 GOPISAHI

Video
Format                         : AVC
Codec ID                       : V_MPEG4/ISO/AVC
Duration                       : 2 h 35 min
Bit rate                       : 400 kb/s
Width                          : 1 280 pixels
Height                         : 532 pixels
Display aspect ratio           : 2.40:1
Frame rate mode                : Constant
Frame rate                     : 23.976 (24000/1001) FPS
Stream size                    : 444 MiB (69%)
Title                          : GOPISAHI
Writing library                : x264 core 155 r2893 b00bcaf

Audio #1
Format                         : AAC
Duration                       : 2 h 35 min
Bit rate                       : 90.0 kb/s
Channel(s)                     : 6 channels
Channel positions              : Front: L C R, Side: L R, LFE
Sampling rate                  : 44.1 kHz
Frame rate                     : 43.066 FPS (1024 SPF)
Compression mode               : Lossy
Stream size                    : 99.9 MiB (16%)
Title                          : GOPISAHI
Language                       : English

Audio #2
Format                         : AAC
Duration                       : 2 h 34 min
Bit rate                       : 87.8 kb/s
Channel(s)                     : 6 channels
Channel positions              : Front: L C R, Side: L R, LFE
Sampling rate                  : 44.1 kHz
Frame rate                     : 43.066 FPS (1024 SPF)
Compression mode               : Lossy
Stream size                    : 97.1 MiB (15%)
Title                          : GOPISAHI
Language                       : Hindi

Text
Language                       : English


                                                                                 https://ouo.io/H1s0Pk

Post a Comment

0 Comments