Search

Without a Clue 1988 720p x264 BluRay Dual Audio English Hindi GOPISAHI

iMDB

Title: Without a Clue
Year: 1988
Runtime: 107 minutes
Votes: 7798
Rating: 7.0/10
Language: English
Country: UK
All Genres: Comedy, Crime, Mystery
Plot Outline: A drunken Sherlock Holmes is really just a cover for the real detective - Dr Watson.
Tagline: Behind every great detective is one even greater.
Director: Thom Eberhardt
Writing By: Gary Murphy,Larry Strawther,
Produced By: Diana Buckhantz,Ben Moses,Marc Stirdivant,
Music: Henry Mancini
Plot:
This is a Sherlock Holmes story with a difference. Here Dr Watson is the ace detective and has been using an actor to play the part Holmes. Holmes is a drunken actor and gets on Watson's nerves. When Watson tries to go it alone, he doesn't have much success, so he is forced to let Holmes take all the credit once more.
Written by Rob Hartill
Sherlock Holmes is as dashing as ever, but with a little secret: Dr. Watson is the brains behing the operation. Watson scripts all of Holmes' solutions, having discovered that while people would believe in Holmes, no one was ready to accept, Dr. Watson, Crime Doctor. When Reginald Kincaid, the actor he has hired to play Holmes becomes insufferable, Watson fires him and tries to go out on his own, but finds that he has done all too good a job building Holmes up in the public's mind.
Written by John Vogel <[email protected]>
A drunken Sherlock Holmes is really just a cover for the real detective - Dr Watson.
Written by Rob Hartill
Cast:
Michael Caine as Reginald Kincaid / Sherlock Holmes 
Ben Kingsley as Dr. Watson 
Jeffrey Jones as Inspector Lestrade 
Lysette Anthony as Leslie Giles 
Paul Freeman as Prof. James Moriarty 
Nigel Davenport as Lord Smithwick 
Pat Keen as Mrs. Hudson 
Peter Cook as Greenhough 
Tim Killick as Sebastian 
Matthew Savage as Wiggins 
Format                         : Matroska
Format version                 : Version 4 / Version 2
File size                      : 439 MiB
Duration                       : 1 h 46 min
Overall bit rate               : 574 kb/s
Movie name                     : Without a Clue 1988 GOPISAHI

Video
Format                         : AVC
Format settings, ReFrames      : 9 frames
Codec ID                       : V_MPEG4/ISO/AVC
Duration                       : 1 h 46 min
Bit rate                       : 400 kb/s
Width                          : 1 280 pixels
Height                         : 720 pixels
Display aspect ratio           : 16:9
Frame rate mode                : Constant
Frame rate                     : 23.976 (24000/1001) FPS
Stream size                    : 305 MiB (70%)
Title                          : GOPISAHI
Writing library                : x264 core 155 r2893 b00bcaf

Audio #1
Format                         : AAC
Duration                       : 1 h 46 min
Bit rate                       : 80.4 kb/s
Channel(s)                     : 6 channels
Channel positions              : Front: L C R, Side: L R, LFE
Sampling rate                  : 44.1 kHz
Frame rate                     : 43.066 FPS (1024 SPF)
Compression mode               : Lossy
Stream size                    : 61.4 MiB (14%)
Title                          : GOPISAHI
Language                       : Hindi

Audio #2
Format                         : AAC
Duration                       : 1 h 46 min
Bit rate                       : 91.5 kb/s
Channel(s)                     : 6 channels
Channel positions              : Front: L C R, Side: L R, LFE
Sampling rate                  : 44.1 kHz
Frame rate                     : 43.066 FPS (1024 SPF)
Compression mode               : Lossy
Stream size                    : 69.9 MiB (16%)
Language                       : English





















































https://ouo.io/DgYrJH






Post a Comment

0 Comments