Search

World Trade Center 2006 2014 720p Esub BluRay Dual Audio English Hindi GOPISAHI

General
Unique ID                      : 172981377539239557545083990678521.............
Complete name                  : F:\DUB\2006\World Trade Center 2006  2014 720p Esub BluRay Dual Audio English Hindi GOPISAHI
Format                         : Matroska
Format version                 : Version 4 / Version 2
File size                      : 892 MiB
Duration                       : 2 h 3 min
Overall bit rate               : 1 007 kb/s
Movie name                     : World Trade Center 2006
Video
Format                         : AVC
Codec ID                       : V_MPEG4/ISO/AVC
Duration                       : 2 h 3 min
Bit rate                       : 828 kb/s
Width                          : 1 280 pixels
Height                         : 720 pixels
Display aspect ratio           : 16:9
Frame rate mode                : Constant
Frame rate                     : 25.000 FPS
Stream size                    : 734 MiB (82%)
Writing library                : x264 core 112
Audio #1
Format                         : AAC
Duration                       : 2 h 3 min
Bit rate                       : 87.1 kb/s
Channel(s)                     : 6 channels
Channel positions              : Front: L C R, Side: L R, LFE
Sampling rate                  : 44.1 kHz
Frame rate                     : 43.066 FPS (1024 SPF)
Stream size                    : 77.2 MiB (9%)
Language                       : English
Audio #2
Format                         : AAC
Duration                       : 2 h 3 min
Bit rate                       : 88.8 kb/s
Channel(s)                     : 6 channels
Channel positions              : Front: L C R, Side: L R, LFE
Sampling rate                  : 44.1 kHz
Frame rate                     : 43.066 FPS (1024 SPF)
Stream size                    : 78.7 MiB (9%)
Language                       : Hindio
Text
Language                       : English
 
 
 

Post a Comment

0 Comments