Search

Zathura A Space Adventure 2005 720p Esub BRRIP Dual Audio English Hindi GOPISAHI

 
Video
Format                         : AVC
Codec ID                       : V_MPEG4/ISO/AVC
Duration                       : 1 h 41 min
Bit rate                       : 940 kb/s
Width                          : 1 280 pixels
Height                         : 688 pixels
Display aspect ratio           : 1.85:1
Frame rate mode                : Constant
Frame rate                     : 23.976 (24000/1001) FPS
Stream size                    : 681 MiB (89%)
Writing library                : x264 core 129 r2245 bc13772
Audio #1
Format                         : AAC
Duration                       : 1 h 41 min
Bit rate                       : 85.0 kb/s
Channel(s)                     : 6 channels
Channel positions              : Front: L C R, Side: L R, LFE
Sampling rate                  : 44.1 kHz
Frame rate                     : 43.066 FPS (1024 SPF)
Stream size                    : 61.6 MiB (8%)
Language                       : English
Audio #2
Duration                       : 1 h 36 min
Bit rate                       : 35.0 kb/s
Channel(s)                     : 2 channels
Channel positions              : Front: L R
Sampling rate                  : 22.05 kHz / 11.025 kHz
Frame rate                     : 10.767 FPS (1024 SPF)
Compression mode               : Lossy
Delay relative to video        : 1 s 942 ms
Stream size                    : 24.2 MiB (3%)
Language                       : Hindi
Text
Language                       : English