Search

Zombie Death House 1988 DVD Dual Audio Hind Spanish GOPISAHI


Format                         : Matroska
Format version                 : Version 4 / Version 2
File size                      : 270 MiB
Duration                       : 1 h 32 min
Overall bit rate               : 407 kb/s
Movie name                     : Zombie Death House 1988 GOPISAHI

Video
ID                             : 1
Format                         : HEVC
Format/Info                    : High Efficiency Video Coding
Format profile                 : [email protected]@Main
Codec ID                       : V_MPEGH/ISO/HEVC
Duration                       : 1 h 32 min
Bit rate                       : 255 kb/s
Width                          : 720 pixels
Height                         : 576 pixels
Display aspect ratio           : 5:4
Frame rate mode                : Constant
Frame rate                     : 25.000 FPS
Standard                       : PAL
Color space                    : YUV
Chroma subsampling             : 4:2:0
Bit depth                      : 8 bits
Bits/(Pixel*Frame)             : 0.025
Stream size                    : 169 MiB (63%)
Writing library                : x265

Audio #1
Format                         : AAC
Duration                       : 1 h 32 min
Bit rate                       : 81.8 kb/s
Channel(s)                     : 6 channels
Channel positions              : Front: L C R, Side: L R, LFE
Sampling rate                  : 44.1 kHz
Frame rate                     : 43.066 FPS (1024 SPF)
Stream size                    : 54.2 MiB (20%)
Language                       : Spanish

Audio #2
Format                         : AAC
Duration                       : 1 h 32 min
Bit rate                       : 67.6 kb/s
Channel(s)                     : 6 channels
Channel positions              : Front: L C R, Side: L R, LFE
Sampling rate                  : 44.1 kHz
Frame rate                     : 43.066 FPS (1024 SPF)
Stream size                    : 44.8 MiB (17%)
Language                       : Hindi



Post a Comment

0 Comments