Chacha Vidhayak Hain Humare Season 1 480p Hind x264 GOPISAH


Format                         : Matroska
Format version                 : Version 4 / Version 2
File size                      : 502 MiB
Duration                       : 3 h 21 min
Overall bit rate               : 348 kb/s
Movie name                     : Chacha Vidhayak Hain Humare Season 1 480p Hind x264 GOPISAHI

Video
Format                         : AVC
Codec ID                       : V_MPEG4/ISO/AVC
Duration                       : 3 h 21 min
Bit rate                       : 250 kb/s
Width                          : 700 pixels
Height                         : 396 pixels
Display aspect ratio           : 16:9
Frame rate mode                : Constant
Frame rate                     : 25.000 FPS
Color space                    : YUV
Chroma subsampling             : 4:2:0
Bit depth                      : 8 bits
Scan type                      : Progressive
Bits/(Pixel*Frame)             : 0.036
Stream size                    : 360 MiB (72%)
Title                          : GOPISAH
Writing library                : x264 core 155 r2893 b00bcaf
Language                       : Hindi

Audio
Format                         : AAC
Duration                       : 3 h 21 min
Bit rate                       : 96.0 kb/s
Channel(s)                     : 2 channels
Channel positions              : Front: L R
Sampling rate                  : 44.1 kHz
Frame rate                     : 43.066 FPS (1024 SPF)
Compression mode               : Lossy
Stream size                    : 138 MiB (28%)
Title                          : GOPISAH
Language                       : Hindi



https://linkshub.me/view/yG9Y1HsOfa

 Chacha Vidhayak Hain Hamare
(2018) on IMDb

Post a Comment

0 Comments