Incredibles 2 2018 x264 720p HDCAM English GOPISAHI


Format                         : Matroska
Format version                 : Version 4 / Version 2
File size                      : 347 MiB
Duration                       : 1 h 45 min
Overall bit rate               : 459 kb/s
Movie name                     : Incredibles 2 2018 GOPISAHI

Video
Format                         : AVC
Codec ID                       : V_MPEG4/ISO/AVC
Duration                       : 1 h 45 min
Bit rate                       : 400 kb/s
Width                          : 1 272 pixels
Height                         : 542 pixels
Display aspect ratio           : 2.35:1
Frame rate mode                : Constant
Frame rate                     : 29.970 (30000/1001) FPS
Color space                    : YUV
Chroma subsampling             : 4:2:0
Bit depth                      : 8 bits
Scan type                      : Progressive
Bits/(Pixel*Frame)             : 0.019
Stream size                    : 302 MiB (87%)
Title                          : GOPISAHI
Writing library                : x264 core 155 r2893 b00bcaf

Audio
Format                         : AAC
Duration                       : 1 h 45 min
Bit rate                       : 56.5 kb/s
Channel(s)                     : 2 channels
Channel positions              : Front: L R
Sampling rate                  : 44.1 kHz
Frame rate                     : 43.066 FPS (1024 SPF)
Compression mode               : Lossy
Stream size                    : 42.7 MiB (12%)
Title                          : GOPISAHI
Language                       : English



 Incredibles 2
(2018) on IMDb

Post a Comment

0 Comments