Lust Stories 2018 x264 720p HD 5.1 Esub Hindi GOPISAHI


Format                         : Matroska
Format version                 : Version 4 / Version 2
File size                      : 508 MiB
Duration                       : 2 h 0 min
Overall bit rate               : 590 kb/s
Movie name                     : Lust Stories 2018 GOPISAHI

Video
Codec ID                       : V_MPEG4/ISO/AVC
Duration                       : 2 h 0 min
Bit rate                       : 500 kb/s
Width                          : 1 280 pixels
Height                         : 498 pixels
Display aspect ratio           : 2.576
Original display aspect ratio  : 2.577
Frame rate mode                : Constant
Frame rate                     : 24.000 FPS
Color space                    : YUV
Chroma subsampling             : 4:2:0
Bit depth                      : 8 bits
Scan type                      : Progressive
Bits/(Pixel*Frame)             : 0.033
Stream size                    : 431 MiB (85%)
Title                          : GOPISAHI
Writing library                : x264 core 155 r2893 b00bcaf

Audio
Format                         : AAC
Duration                       : 2 h 0 min
Bit rate                       : 87.7 kb/s
Channel(s)                     : 6 channels
Channel positions              : Front: L C R, Side: L R, LFE
Sampling rate                  : 44.1 kHz
Frame rate                     : 43.066 FPS (1024 SPF)
Compression mode               : Lossy
Stream size                    : 75.6 MiB (15%)
Title                          : GOPISAHI
Language                       : Hindi

Text
Language                       : English






 Lust Stories
(2018) on IMDb

Post a Comment

0 Comments