Mercy 2014 x264 720p Esub HD Dual Audio English Hindi GOPISAHI


Format                         : Matroska
Format version                 : Version 4 / Version 2
File size                      : 559 MiB
Duration                       : 1 h 18 min
Overall bit rate               : 994 kb/s
Movie name                     : Mercy 2014 GOPISAHI

Video
Format                         : AVC
Codec ID                       : V_MPEG4/ISO/AVC
Duration                       : 1 h 18 min
Bit rate                       : 799 kb/s
Width                          : 1 280 pixels
Height                         : 536 pixels
Display aspect ratio           : 2.40:1
Frame rate mode                : Constant
Frame rate                     : 30.000 FPS
Color space                    : YUV
Chroma subsampling             : 4:2:0
Bit depth                      : 8 bits
Scan type                      : Progressive
Bits/(Pixel*Frame)             : 0.039
Stream size                    : 449 MiB (80%)
Title                          : GOPISAHI
Writing library                : x264 core 148 r2708 86b7198

Audio #1
Format                         : AAC
Duration                       : 1 h 18 min
Bit rate                       : 96.0 kb/s
Channel(s)                     : 2 channels
Channel positions              : Front: L R
Sampling rate                  : 48.0 kHz
Frame rate                     : 46.875 FPS (1024 SPF)
Compression mode               : Lossy
Delay relative to video        : -21 ms
Stream size                    : 54.1 MiB (10%)
Title                          : GOPISAHI
Language                       : English

Audio #2
Codec ID/Hint                  : MP3
Duration                       : 1 h 18 min
Bit rate mode                  : Constant
Bit rate                       : 96.0 kb/s
Channel(s)                     : 2 channels
Sampling rate                  : 32.0 kHz
Frame rate                     : 27.778 FPS (1152 SPF)
Compression mode               : Lossy
Delay relative to video        : -21 ms
Stream size                    : 54.0 MiB (10%)
Title                          : GOPISAHI
Writing library                : LAME3.100
Encoding settings              : -m j -V 4 -q 2 -lowpass 15.1 -b 96
Language                       : Hindi

Text
Language                       : English



TORRENT

MAGNET


https://linkshub.me/view/1arXTwqdr9


 Mercy
(2014) on IMDb

Post a Comment

0 Comments