Munich 2005 720p BluRay Dual Audio English Hindi GOPISAHI

Format                         : Matroska
Format version                 : Version 4 / Version 2
File size                      : 833 MiB
Duration                       : 2 h 43 min
Overall bit rate               : 712 kb/s
Movie name                     : Munich 2005
Video
Format                         : AVC
Codec ID                       : V_MPEG4/ISO/AVC
Duration                       : 2 h 36 min
Bit rate                       : 586 kb/s
Width                          : 1 280 pixels
Height                         : 544 pixels
Display aspect ratio           : 2.35:1
Frame rate mode                : Constant
Frame rate                     : 25.000 FPS
Color space                    : YUVve
Bits/(Pixel*Frame)             : 0.034
Stream size                    : 658 MiB (79%)
Writing library                : x264 core 112
Audio #1
Format                         : AAC
Duration                       : 2 h 43 min
Bit rate                       : 89.3 kb/s
Channel(s)                     : 6 channels
Channel positions              : Front: L C R, Side: L R, LFE
Sampling rate                  : 44.1 kHz
Frame rate                     : 43.066 FPS (1024 SPF)
Stream size                    : 105 MiB (13%)
Language                       : English
Audio #2
Format                         : AAC
Duration                       : 2 h 30 min
Bit rate                       : 62.8 kb/s
Channel(s)                     : 6 channels
Channel positions              : Front: L C R, Side: L R, LFE
Sampling rate                  : 44.1 kHz
Frame rate                     : 43.066 FPS (1024 SPF)
Stream size                    : 67.7 MiB (8%)
Language                       : Hindi
Text
Language                       : English




 Munich
(2005) on IMDb