Ready Player One 2018 x264 720p HD 5.1 Esub GOPISAHI


Format                         : Matroska
Format version                 : Version 4 / Version 2
File size                      : 876 MiB
Duration                       : 2 h 19 min
Overall bit rate               : 876 kb/s
Movie name                     : Ready Player One 2018 GOPISAHI

Video
Format                         : AVC
Codec ID                       : V_MPEG4/ISO/AVC
Duration                       : 2 h 19 min
Bit rate                       : 800 kb/s
Width                          : 1 280 pixels
Height                         : 534 pixels
Display aspect ratio           : 2.40:1
Original display aspect ratio  : 2.40:1
Frame rate mode                : Constant
Frame rate                     : 23.976 (24000/1001) FPS
Color space                    : YUV
Chroma subsampling             : 4:2:0
Bit depth                      : 8 bits
Scan type                      : Progressive
Bits/(Pixel*Frame)             : 0.049
Stream size                    : 789 MiB (90%)
Title                          : GOPISAHI
Writing library                : x264 core 155 r2893 b00bcaf

Audio
Format                         : AAC
Duration                       : 2 h 19 min
Bit rate                       : 85.4 kb/s
Channel(s)                     : 6 channels
Channel positions              : Front: L C R, Side: L R, LFE
Sampling rate                  : 44.1 kHz
Frame rate                     : 43.066 FPS (1024 SPF)
Compression mode               : Lossy
Stream size                    : 85.5 MiB (10%)
Title                          : GOPISAHI
Language                       : English

Text
Language                       : English






 Ready Player One
(2018) on IMDb

Post a Comment

0 Comments