Toofan Singh 2017 720p HD Punjabi GOPISAHI


Format                         : Matroska
Format version                 : Version 4 / Version 2
File size                      : 583 MiB
Duration                       : 2 h 22 min
Overall bit rate               : 572 kb/s
Movie name                     : Toofan Singh 2017 GOPISAHI

Video
Format                         : AVC
Duration                       : 2 h 22 min
Bit rate                       : 500 kb/s
Width                          : 1 280 pixels
Height                         : 676 pixels
Display aspect ratio           : 1.893
Frame rate mode                : Constant
Frame rate                     : 25.000 FPS
Stream size                    : 510 MiB (87%)
Writing library                : x264 core 148 r2708 86b7198

Audio
Format                         : AAC
Duration                       : 2 h 22 min
Bit rate                       : 70.0 kb/s
Channel(s)                     : 6 channels
Channel positions              : Front: L C R, Side: L R, LFE
Sampling rate                  : 44.1 kHz
Frame rate                     : 43.066 FPS (1024 SPF)
Compression mode               : Lossy
Stream size                    : 71.3 MiB (12%)
Language                       : Panjabi


 Toofan Singh
(2017) on IMDb

Post a Comment

0 Comments