Youve Got Mail 1998 720p Esub BluRay Dual Audio English Hindi GOPISAHI

 Format                         : Matroska
Format version                 : Version 4 / Version 2
File size                      : 824 MiB
Duration                       : 1 h 59 min
Overall bit rate               : 965 kb/s
Movie name                     : Youve Got Mail 1998 GOPISAHI

Video
Format                         : AVC
Codec ID                       : V_MPEG4/ISO/AVC
Duration                       : 1 h 59 min
Bit rate                       : 784 kb/s
Width                          : 1 280 pixels
Height                         : 720 pixels
Display aspect ratio           : 16:9
Frame rate mode                : Constant
Frame rate                     : 23.976 (24000/1001) FPS
Stream size                    : 669 MiB (81%)
Writing library                : x264

Audio #1
Format                         : AAC
Duration                       : 1 h 59 min
Bit rate                       : 85.3 kb/s
Channel(s)                     : 6 channels
Channel positions              : Front: L C R, Side: L R, LFE
Sampling rate                  : 44.1 kHz
Frame rate                     : 43.066 FPS (1024 SPF)
Stream size                    : 72.9 MiB (9%)
Language                       : English

Audio #2
Format                         : AAC
Duration                       : 1 h 59 min
Bit rate                       : 93.4 kb/s
Channel(s)                     : 6 channels
Channel positions              : Front: L C R, Side: L R, LFE
Sampling rate                  : 44.1 kHz
Frame rate                     : 43.066 FPS (1024 SPF)
Stream size                    : 79.8 MiB (10%)
Language                       : Hindi

Text
Language                       : English



 You've Got Mail
(1998) on IMDb

Post a Comment

0 Comments