+18 Horn Ok Please 2018 S 01 x264 480p HD Hindi GOPISAHI


Format                         : Matroska
Format version                 : Version 4 / Version 2
File size                      : 589 MiB
Duration                       : 4 h 23 min
Overall bit rate               : 313 kb/s
Movie name                     : +18 Horn Ok Please 2018 GOPISAHI

Video
Format                         : AVC
Codec ID                       : V_MPEG4/ISO/AVC
Duration                       : 4 h 23 min
Bit rate                       : 249 kb/s
Width                          : 720 pixels
Height                         : 406 pixels
Display aspect ratio           : 16:9
Frame rate mode                : Constant
Frame rate                     : 25.000 FPS
Color space                    : YUV
Chroma subsampling             : 4:2:0
Bit depth                      : 8 bits
Scan type                      : Progressive
Bits/(Pixel*Frame)             : 0.034
Stream size                    : 469 MiB (80%)
Title                          : GOPISAHI
Writing library                : x264 core 155 r2901 7d0ff22

Audio
Format                         : AAC
Duration                       : 4 h 23 min
Bit rate                       : 61.6 kb/s
Channel(s)                     : 2 channels
Channel positions              : Front: L R
Sampling rate                  : 44.1 kHz
Frame rate                     : 43.066 FPS (1024 SPF)
Compression mode               : Lossy
Delay relative to video        : 511 ms
Stream size                    : 116 MiB (20%)
Title                          : GOPISAHI
Language                       : Hindi



TORRENT

MAGNET

https://linkshub.me/view/AAwEN827AH

 Horn OK Please
(2006) on IMDb


Post a Comment

0 Comments