+18 Skyscraper 1996 x264 720p DvD Dual Audio English Hindi Telugu GOPISAHI


Format                         : Matroska
Format version                 : Version 4 / Version 2
File size                      : 570 MiB
Duration                       : 1 h 41 min
Overall bit rate               : 783 kb/s
Movie name                     : Skyscraper 1996 GOPISAHI

Video
Format                         : AVC
Codec ID                       : V_MPEG4/ISO/AVC
Duration                       : 1 h 41 min
Bit rate                       : 499 kb/s
Width                          : 1 156 pixels
Height                         : 720 pixels
Display aspect ratio           : 16:10
Frame rate mode                : Constant
Frame rate                     : 25.000 FPS
Color space                    : YUV
Chroma subsampling             : 4:2:0
Bit depth                      : 8 bits
Scan type                      : Progressive
Bits/(Pixel*Frame)             : 0.024
Stream size                    : 363 MiB (64%)
Title                          : GOPISAHI
Writing library                : x264 core 155 r2901 7d0ff22

Audio #1
Format                         : AAC
Duration                       : 1 h 41 min
Bit rate                       : 96.0 kb/s
Channel(s)                     : 2 channels
Channel positions              : Front: L R
Sampling rate                  : 48.0 kHz
Frame rate                     : 46.875 FPS (1024 SPF)
Compression mode               : Lossy
Stream size                    : 70.0 MiB (12%)
Title                          : GOPISAHI
Language                       : Telugu

Audio #2
Format                         : AAC
Duration                       : 1 h 32 min
Bit rate                       : 96.0 kb/s
Channel(s)                     : 2 channels
Channel positions              : Front: L R
Sampling rate                  : 48.0 kHz
Frame rate                     : 46.875 FPS (1024 SPF)
Compression mode               : Lossy
Stream size                    : 63.9 MiB (11%)
Title                          : GOPISAHI
Language                       : Hindi

Audio #3
Format                         : AAC
Duration                       : 1 h 41 min
Bit rate                       : 96.0 kb/s
Channel(s)                     : 2 channels
Channel positions              : Front: L R
Sampling rate                  : 48.0 kHz
Frame rate                     : 46.875 FPS (1024 SPF)
Compression mode               : Lossy
Stream size                    : 70.1 MiB (12%)
Title                          : GOPISAHI
Language                       : English



TORRENT

MAGNET

https://linkshub.me/view/YWZESNCcgz

 Skyscraper
(1996) on IMDb


Post a Comment

1 Comments

  1. http://telugupalaka.com/garuda-paksa-wayu-telugu-dubbed-2004-720p-bdrip-multi-audio/

    ReplyDelete