Daas Dev 2018 x264 720p TV GOPISAHI


Format                         : Matroska
Format version                 : Version 4 / Version 2
File size                      : 545 MiB
Duration                       : 2 h 11 min
Overall bit rate               : 577 kb/s
Movie name                     : Daas Dev 2018 GOPISAHI

Video
Format                         : AVC
Codec ID                       : V_MPEG4/ISO/AVC
Duration                       : 2 h 11 min
Bit rate                       : 499 kb/s
Width                          : 1 280 pixels
Height                         : 578 pixels
Display aspect ratio           : 2.2:1
Frame rate mode                : Variable
Frame rate                     : 19.923 FPS
Color space                    : YUV
Chroma subsampling             : 4:2:0
Bit depth                      : 8 bits
Scan type                      : Progressive
Bits/(Pixel*Frame)             : 0.034
Stream size                    : 470 MiB (86%)
Title                          : GOPISAHI
Writing library                : x264 core 155 r2901 7d0ff22

Audio
Format                         : AAC
Duration                       : 2 h 11 min
Bit rate                       : 77.3 kb/s
Channel(s)                     : 2 channels
Channel positions              : Front: L R
Sampling rate                  : 48.0 kHz
Frame rate                     : 46.875 FPS (1024 SPF)
Compression mode               : Lossy
Delay relative to video        : -1 s 789 ms
Stream size                    : 72.8 MiB (13%)
Title                          : GOPISAHI
Language                       : Hindi




TORRENT

MAGNET


https://linkshub.me/view/4k4FXdfO66


 Daas Dev
(2018) on IMDb


Post a Comment

0 Comments