Game of Thrones 2011 S01 E10 Fire And Blood x264 720p Esub BluRay Dual Audio English Hindi GOPISAHI


Format                         : Matroska
Format version                 : Version 4 / Version 2
File size                      : 298 MiB
Duration                       : 52 min 37 s
Overall bit rate               : 793 kb/s
Movie name                     : Game of Thrones S01 E10 Fire And Blood GOPISAHI

Video
Format                         : AVC
Codec ID                       : V_MPEG4/ISO/AVC
Duration                       : 52 min 37 s
Bit rate                       : 599 kb/s
Width                          : 1 280 pixels
Height                         : 720 pixels
Display aspect ratio           : 16:9
Frame rate mode                : Constant
Frame rate                     : 23.976 (24000/1001) FPS
Color space                    : YUV
Chroma subsampling             : 4:2:0
Bit depth                      : 8 bits
Scan type                      : Progressive
Bits/(Pixel*Frame)             : 0.027
Stream size                    : 225 MiB (76%)
Title                          : GOPISAHI
Writing library                : x264 core 148 r2708 86b7198

Audio #1
Format                         : AAC
Duration                       : 52 min 37 s
Bit rate                       : 96.0 kb/s
Channel(s)                     : 2 channels
Channel positions              : Front: L R
Sampling rate                  : 48.0 kHz
Frame rate                     : 46.875 FPS (1024 SPF)
Compression mode               : Lossy
Delay relative to video        : 9 ms
Stream size                    : 36.2 MiB (12%)
Title                          : GOPISAHI
Language                       : English

Audio #2
Format                         : AAC
Duration                       : 52 min 37 s
Bit rate                       : 96.0 kb/s
Channel(s)                     : 6 channels
Channel positions              : Front: L C R, Side: L R, LFE
Sampling rate                  : 48.0 kHz
Frame rate                     : 46.875 FPS (1024 SPF)
Compression mode               : Lossy
Stream size                    : 35.6 MiB (12%)
Title                          : GOPISAHI
Language                       : Hindi

Text
Language                       : English

Menu
00:00:00.000                   : en:00:00:00.000
00:00:06.089                   : en:00:00:06.006
00:01:46.648                   : en:00:01:46.523
00:07:37.707                   : en:00:07:37.707
00:18:21.559                   : en:00:18:21.559
00:27:02.037                   : en:00:27:01.995
00:37:23.408                   : en:00:37:23.408
00:45:16.547                   : en:00:45:16.547
00:51:31.046                   : en:00:51:30.921



TORRENT

MAGNET

https://linkshub.me/view/5ha0LhmGaz

 Fire and Blood
(2011) on IMDb


Post a Comment

1 Comments

  1. When are you going to upload next season in Hindi

    ReplyDelete