Search

The Border 1982 x264 DvD Esub Dual Audio English Hindi GOPISAHI


The Border 1982 x264 DvD Esub Dual Audio English Hindi GOPISAHI
Format                         : Matroska
Format version                 : Version 4 / Version 2
File size                      : 408 MiB
Duration                       : 1 h 48 min
Overall bit rate               : 527 kb/s

Video
Format                         : AVC
Codec ID                       : V_MPEG4/ISO/AVC
Duration                       : 1 h 48 min
Bit rate                       : 300 kb/s
Width                          : 640 pixels
Height                         : 272 pixels
Display aspect ratio           : 2.35:1
Frame rate mode                : Constant
Frame rate                     : 23.976 (24000/1001) FPS
Color space                    : YUV
Chroma subsampling             : 4:2:0
Bit depth                      : 8 bits
Scan type                      : Progressive
Bits/(Pixel*Frame)             : 0.072
Stream size                    : 232 MiB (57%)
Title                          : GOPISAHI
Writing library                : x264 core 155 r2893 b00bcaf

Audio #1
Format                         : AAC
Duration                       : 1 h 48 min
Bit rate                       : 96.0 kb/s
Channel(s)                     : 2 channels
Channel positions              : Front: L R
Sampling rate                  : 48.0 kHz
Frame rate                     : 46.875 FPS (1024 SPF)
Compression mode               : Lossy
Stream size                    : 74.6 MiB (18%)
Title                          : GOPISAHI
Language                       : English

Audio #2
Format                         : MPEG Audio
Format version                 : Version 1
Format profile                 : Layer 2
Codec ID                       : A_MPEG/L2
Codec ID/Hint                  : MP2
Duration                       : 1 h 48 min
Bit rate mode                  : Constant
Bit rate                       : 128 kb/s
Channel(s)                     : 2 channels
Sampling rate                  : 44.1 kHz
Frame rate                     : 38.281 FPS (1152 SPF)
Compression mode               : Lossy
Delay relative to video        : 2 s 0 ms
Stream size                    : 99.2 MiB (24%)
Title                          : GOPISAHI
Language                       : Hindi

TexiB (0%)
Title                          : GOPISAHI
Language                       : English




 The Border
(1982) on IMDb

Post a Comment

3 Comments

  1. Please upload in bluray quality

    ReplyDelete
  2. http://telugupalaka.com/the-legend-of-sudsakorn-telugu-dubbed-2006-720p-hdrip-multi-audio/

    ReplyDelete