The Hitmans Bodyguard 2017 x264 720p Esub BluRay Dual Audio English Hindi (Clean) GOPISAHI


Format                         : Matroska
Format version                 : Version 4 / Version 2
File size                      : 942 MiB
Duration                       : 1 h 58 min
Overall bit rate               : 1 112 kb/s
Movie name                     : The Hitmans Bodyguard 2017 GOPISAHI

Video
Format                         : AVC
Format/Info                    : Advanced Video Codec
Codec ID                       : V_MPEG4/ISO/AVC
Duration                       : 1 h 58 min
Bit rate                       : 900 kb/s
Width                          : 1 280 pixels
Height                         : 534 pixels
Display aspect ratio           : 2.40:1
Original display aspect ratio  : 2.40:1
Frame rate mode                : Constant
Frame rate                     : 23.976 (24000/1001) FPS
Color space                    : YUV
Chroma subsampling             : 4:2:0
Bit depth                      : 8 bits
Scan type                      : Progressive
Bits/(Pixel*Frame)             : 0.055
Stream size                    : 761 MiB (81%)
Title                          : GOPISAHI
Writing library                : x264 core 148

Audio #1
Format                         : AAC
Duration                       : 1 h 58 min
Bit rate                       : 114 kb/s
Channel(s)                     : 2 channels
Channel positions              : Front: L R
Sampling rate                  : 48.0 kHz
Frame rate                     : 46.875 FPS (1024 SPF)
Compression mode               : Lossy
Delay relative to video        : -43 ms
Stream size                    : 96.5 MiB (10%)
Title                          : GOPISAHI
Language                       : English

Audio #2
Format                         : AAC
Duration                       : 1 h 58 min
Bit rate                       : 96.0 kb/s
Channel(s)                     : 2 channels
Channel positions              : Front: L R
Sampling rate                  : 48.0 kHz
Frame rate                     : 46.875 FPS (1024 SPF)
Compression mode               : Lossy
Delay relative to video        : 13 s 523 ms
Stream size                    : 81.2 MiB (9%)
Title                          : GOPISAHI
Language                       : Hindi

Text
Language                       : English






https://linkshub.me/view/K5nr1qa64Q


 The Hitman's Bodyguard
(2017) on IMDb

Post a Comment

2 Comments

  1. Bro please help main Handbrake ka use Kiya But mera size aur Badh ja Raha hai kyu... please help me

    ReplyDelete
  2. Please Tell Bro...🙏🙏

    ReplyDelete