The Untold Story of Sunny Leone 2018 S01 x264 720p HD Hindi GOPISAHI


Format                         : Matroska
Format version                 : Version 4 / Version 2
File size                      : 807 MiB
Duration                       : 3 h 25 min
Overall bit rate               : 549 kb/s
Movie name                     : The Untold Story of Sunny Leone 2018 GOPISAHI

Video
Format                         : AVC
Codec ID                       : V_MPEG4/ISO/AVC
Duration                       : 3 h 25 min
Bit rate                       : 450 kb/s
Width                          : 1 280 pixels
Height                         : 544 pixels
Display aspect ratio           : 2.35:1
Frame rate mode                : Constant
Frame rate                     : 29.970 (29970/1000) FPS
Color space                    : YUV
Chroma subsampling             : 4:2:0
Bit depth                      : 8 bits
Scan type                      : Progressive
Bits/(Pixel*Frame)             : 0.022
Stream size                    : 662 MiB (82%)
Title                          : GOPISAHI
Writing library                : x264 core 155 r2901 7d0ff22
Language                       : Hindi

Audio
Format                         : AAC
Duration                       : 3 h 25 min
Bit rate                       : 96.0 kb/s
Channel(s)                     : 2 channels
Channel positions              : Front: L R
Sampling rate                  : 48.0 kHz
Frame rate                     : 46.875 FPS (1024 SPF)
Compression mode               : Lossy
Delay relative to video        : -21 ms
Stream size                    : 142 MiB (18%)
Title                          : GOPISAHI
Language                       : Hindi









 Karenjit Kaur - The Untold Story of Sunny Leone
(2018) on IMDb



Post a Comment

0 Comments