Search

+18 American Pie Reunion 2012 x264 720p Esub BluRay Dual Audio English Hindi GOPISAHI


Format                         : Matroska
Format version                 : Version 4 / Version 2
File size                      : 807 MiB
Duration                       : 1 h 53 min
Overall bit rate               : 991 kb/s
Movie name                     : American Reunion 2012 GOPISAHI

Video
Format                         : AVC
Format/Info                    : Advanced Video Codec
Codec ID                       : V_MPEG4/ISO/AVC
Duration                       : 1 h 53 min
Bit rate                       : 799 kb/s
Width                          : 1 280 pixels
Height                         : 688 pixels
Display aspect ratio           : 1.85:1
Frame rate mode                : Constant
Frame rate                     : 23.976 (24000/1001) FPS
Color space                    : YUV
Chroma subsampling             : 4:2:0
Bit depth                      : 8 bits
Scan type                      : Progressive
Bits/(Pixel*Frame)             : 0.038
Stream size                    : 650 MiB (81%)
Title                          : GOPISAHI
Writing library                : x264 core 155 r2901 7d0ff22

Audio #1
Format                         : AAC
Format/Info                    : Advanced Audio Codec
Duration                       : 1 h 53 min
Bit rate                       : 93.9 kb/s
Channel(s)                     : 2 channels
Channel positions              : Front: L R
Sampling rate                  : 48.0 kHz
Frame rate                     : 46.875 FPS (1024 SPF)
Compression mode               : Lossy
Delay relative to video        : 3 s 500 ms
Stream size                    : 76.0 MiB (9%)
Title                          : GOPISAHI
Language                       : Hindi

Audio #2
Format                         : AAC
Format/Info                    : Advanced Audio Codec
Duration                       : 1 h 53 min
Bit rate                       : 96.0 kb/s
Channel(s)                     : 2 channels
Channel positions              : Front: L R
Sampling rate                  : 48.0 kHz
Frame rate                     : 46.875 FPS (1024 SPF)
Compression mode               : Lossy
Delay relative to video        : -21 ms
Stream size                    : 78.2 MiB (10%)
Title                          : GOPISAHI
Language                       : English

Text
Language                       : English



TORRENT

MAGNET

https://linksclub.biz/drive/download.php?id=6ee54e75dccacbb6f75c

https://linkstaker.bid/drive/download.php?id=8d965b94800a218ad5db

http://1upload.pw/Download.php?url=bWZZdlhBRlZNV0grMnVweWkxb1RHUXdJVTNPM0tkME9sU3hYUFdjQSsreW8vekIrd2xucUxGYXI3MklSNWVQRA==

https://uploadfiles.pw/57e6db85fbfea022

https://www.oboom.com/AYOXZGIN

https://megaup.net/dzdV/18_American_Pie_Reunion_2012_x264_720p_Esub_BluRay_Dual_Audio_English_Hindi_GOPISAHI.mkv

https://openload.co/f/qGb1X-_gJBc/18%2520American%2520Pie%2520Reunion%25202012%2520x264%2520720p%2520Esub%2520BluRay%2520Dual%2520Audio%2520English%2520Hindi%2520GOPISAHI.mkv.mp4

https://vidoza.net/8jum5hokzfet.html

https://vidlox.me/nkoacg0tyiyz

http://www.filefactory.com/file/3u8v2rret677/

http://www.indishare.me/mzbk5inq268n

https://bdupload.info/y3b01xm00r7m

https://uptobox.com/pmviqd53h61h

https://uptostream.com/pmviqd53h61h

400 MB HINDI

 American Pie: Reunion
(2012) on IMDb


Post a Comment

0 Comments