+18 Do Or Die 1991 DVD Telugu Tamil Hindi English GOPISAHI


Format                         : Matroska
Format version                 : Version 4 / Version 2
File size                      : 436 MiB
Duration                       : 1 h 37 min
Overall bit rate               : 624 kb/s
Movie name                     : Do Or Die 1991 GOPISAHI

Video
Format                         : AVC
Format/Info                    : Advanced Video Codec
Codec ID                       : V_MPEG4/ISO/AVC
Duration                       : 1 h 37 min
Bit rate                       : 299 kb/s
Width                          : 544 pixels
Height                         : 400 pixels
Display aspect ratio           : 4:3
Frame rate mode                : Constant
Frame rate                     : 23.976 (24000/1001) FPS
Color space                    : YUV
Chroma subsampling             : 4:2:0
Bit depth                      : 8 bits
Scan type                      : Progressive
Bits/(Pixel*Frame)             : 0.057
Stream size                    : 209 MiB (48%)
Title                          : GOPISAHI
Writing library                : x264 core 155 r2901 7d0ff22

Audio #1
Format                         : AAC
Duration                       : 1 h 37 min
Bit rate                       : 96.0 kb/s
Channel(s)                     : 2 channels
Channel positions              : Front: L R
Sampling rate                  : 48.0 kHz
Frame rate                     : 46.875 FPS (1024 SPF)
Compression mode               : Lossy
Delay relative to video        : -21 ms
Stream size                    : 66.9 MiB (15%)
Title                          : GOPISAHI
Language                       : Hindi

Audio #2
Format                         : AAC
Format/Info                    : Advanced Audio Codec
Duration                       : 1 h 37 min
Bit rate                       : 96.0 kb/s
Channel(s)                     : 2 channels
Channel positions              : Front: L R
Sampling rate                  : 48.0 kHz
Frame rate                     : 46.875 FPS (1024 SPF)
Compression mode               : Lossy
Delay relative to video        : -21 ms
Stream size                    : 67.4 MiB (15%)
Title                          : GOPISAHI
Language                       : English

Audio #3
Format                         : AAC
Format/Info                    : Advanced Audio Codec
Duration                       : 1 h 37 min
Bit rate                       : 64.2 kb/s
Channel(s)                     : 2 channels
Channel positions              : Front: L R
Sampling rate                  : 48.0 kHz
Frame rate                     : 46.875 FPS (1024 SPF)
Compression mode               : Lossy
Delay relative to video        : -21 ms
Stream size                    : 44.9 MiB (10%)
Title                          : GOPISAHI
Language                       : Telugu

Audio #4
Format                         : AAC
Duration                       : 1 h 37 min
Bit rate                       : 64.2 kb/s
Channel(s)                     : 2 channels
Channel positions              : Front: L R
Sampling rate                  : 48.0 kHz
Frame rate                     : 46.875 FPS (1024 SPF)
Compression mode               : Lossy
Delay relative to video        : -21 ms
Stream size                    : 44.9 MiB (10%)
Title                          : GOPISAHI
Language                       : Tamil



TORRENT

MAGNET

https://uploadfiles.pw/4f858ab237afef8b

https://vidoza.net/bvo0ltumx6zw.html

http://www.mediafire.com/file/5a33811p3x9sia6/18_D_O_D_1991_.zip/file

http://www.filefactory.com/file/78lahjz051sp/

https://www.oboom.com/TYG7VF54

https://openload.co/f/NpnjVnjiTnM/18%2520Do%2520Or%2520Die%25201991%2520DVD%2520Telugu%2520%2520Tamil%2520Hindi%2520English%2520GOPISAHI.mkv.mp4

http://www.indishare.me/3dc3bon339e6

https://bdupload.info/kk9sjne5eaq9

https://uptobox.com/czlrtetkvfw2

 Do or Die
(1991) on IMDb

Post a Comment

0 Comments