Search

Asian Cop High Voltage 1994 x264 720p HD Dual Audio English Hindi GOPISAHI


Format                         : Matroska
Format version                 : Version 4 / Version 2
File size                      : 554 MiB
Duration                       : 1 h 29 min
Overall bit rate               : 860 kb/s
Movie name                     : Asian Cop High Voltage 1994 GOPISAHI

Video
Format                         : AVC
Codec ID                       : V_MPEG4/ISO/AVC
Duration                       : 1 h 29 min
Bit rate                       : 599 kb/s
Width                          : 1 280 pixels
Height                         : 718 pixels
Display aspect ratio           : 16:9
Frame rate mode                : Constant
Frame rate                     : 23.976 (24000/1001) FPS
Color space                    : YUV
Chroma subsampling             : 4:2:0
Bit depth                      : 8 bits
Scan type                      : Progressive
Bits/(Pixel*Frame)             : 0.027
Stream size                    : 385 MiB (70%)
Title                          : GOPISAHI
Writing library                : x264 core 155 r2901 7d0ff22

Audio #1
Format                         : AAC
Format/Info                    : Advanced Audio Codec
Duration                       : 1 h 29 min
Bit rate                       : 64.2 kb/s
Channel(s)                     : 2 channels
Channel positions              : Front: L R
Sampling rate                  : 48.0 kHz
Frame rate                     : 46.875 FPS (1024 SPF)
Compression mode               : Lossy
Delay relative to video        : -42 ms
Stream size                    : 41.3 MiB (7%)
Title                          : GOPISAHI
Language                       : Hindi

Audio #2
Format                         : AAC
Duration                       : 1 h 29 min
Bit rate                       : 64.3 kb/s
Channel(s)                     : 2 channels
Channel positions              : Front: L R
Sampling rate                  : 48.0 kHz
Frame rate                     : 46.875 FPS (1024 SPF)
Compression mode               : Lossy
Delay relative to video        : -42 ms
Stream size                    : 41.4 MiB (7%)
Title                          : GOPISAHI
Language                       : Telugu

Audio #3
Format                         : AAC
Format/Info                    : Advanced Audio Codec
Duration                       : 1 h 29 min
Bit rate                       : 64.2 kb/s
Channel(s)                     : 2 channels
Channel positions              : Front: L R
Sampling rate                  : 48.0 kHz
Frame rate                     : 46.875 FPS (1024 SPF)
Compression mode               : Lossy
Delay relative to video        : -42 ms
Stream size                    : 41.3 MiB (7%)
Title                          : GOPISAHI
Language                       : English

Audio #4
Format                         : AAC
Duration                       : 1 h 29 min
Bit rate                       : 64.4 kb/s
Channel(s)                     : 2 channels
Channel positions              : Front: L R
Sampling rate                  : 48.0 kHz
Frame rate                     : 46.875 FPS (1024 SPF)
Compression mode               : Lossy
Delay relative to video        : -42 ms
Stream size                    : 41.5 MiB (7%)
Title                          : GOPISAHI
Language                       : Chinese



TORRENT

MAGNET


 Asian Cop: High Voltage
(1994) on IMDb
2

Post a Comment

0 Comments