Search

Avengers Infinity War 2018 x264 720p Esub BluRay Hindi ORG 5.1 GOPISAHI

Format                         : Matroska
Format version                 : Version 4 / Version 2
File size                      : 954 MiB
Duration                       : 2 h 29 min
Overall bit rate               : 893 kb/s
Movie name                     : Avengers Infinity War 2018 GOPISAHI

Video
Format                         : AVC
Format/Info                    : Advanced Video Codec
Codec ID                       : V_MPEG4/ISO/AVC
Duration                       : 2 h 29 min
Bit rate                       : 699 kb/s
Width                          : 1 280 pixels
Height                         : 534 pixels
Display aspect ratio           : 2.40:1
Frame rate mode                : Constant
Frame rate                     : 23.976 (24000/1001) FPS
Color space                    : YUV
Chroma subsampling             : 4:2:0
Bit depth                      : 8 bits
Scan type                      : Progressive
Bits/(Pixel*Frame)             : 0.043
Stream size                    : 747 MiB (78%)
Title                          : GOPISAHI
Writing library                : x264 core 155 r2901 7d0ff22

Audio
Format                         : AAC
Duration                       : 2 h 29 min
Bit rate                       : 192 kb/s
Channel(s)                     : 6 channels
Channel positions              : Front: L C R, Side: L R, LFE
Sampling rate                  : 48.0 kHz
Frame rate                     : 46.875 FPS (1024 SPF)
Compression mode               : Lossy
Delay relative to video        : -21 ms
Stream size                    : 205 MiB (21%)
Title                          : GOPISAHI
Language                       : Hindi

Text
Language                       : English

Menu
00:00:00.000                   : en:Chapter 1
00:11:28.730                   : en:Chapter 2
00:18:13.884                   : en:Chapter 3
00:27:23.809                   : en:Chapter 4
00:35:48.813                   : en:Chapter 5
00:42:23.541                   : en:Chapter 6
00:54:12.875                   : en:Chapter 7
00:59:36.740                   : en:Chapter 8
01:05:07.153                   : en:Chapter 9
01:10:53.666                   : en:Chapter 10
01:17:06.956                   : en:Chapter 11
01:24:14.758                   : en:Chapter 12
01:31:08.004                   : en:Chapter 13
01:42:00.406                   : en:Chapter 14
01:45:57.810                   : en:Chapter 15
01:53:04.069                   : en:Chapter 16
01:58:52.917                   : en:Chapter 17
02:03:58.181                   : en:Chapter 18
02:11:13.282                   : en:Chapter 19
02:17:31.285                   : en:Chapter 20



TORRENT

MAGNET

http://1upload.pw/Download.php?url=TTRCb2FsKzJkTU5JVGtnV2dzZHY4MzFjc0g5b3R2OENScnZ3UTU5cWpxZDE5NkVBWStUbXpiUEQ5NGNubkI4cg==

https://linkstaker.bid/drive/download.php?id=779e5097ddcf770cd3fb

https://linksclub.biz/drive/download.php?id=d610f939155e8f6a7103

https://uploadfiles.pw/d89e400666b9953e

http://www.indishare.me/nnqy3lfxlw07

https://megaup.net/5caa/Avengers_Infinity_War_2018_x264_720p_Esub_BluRay_Hindi_ORG_5.1_GOPISAHI.mkv

https://bdupload.info/uueoiye0ebet

https://uptobox.com/vmqci4l5bjye

https://vidoza.net/egf8vi0l9ua9.html

http://www.filefactory.com/file/6olj71dw3da7/

https://openload.co/f/otIahHtYnnU/Avengers%2520Infinity%2520War%25202018%2520x264%2520720p%2520Esub%2520BluRay%2520Hindi%2520ORG%25205.1%2520GOPISAHI.mkv

https://vidlox.me/tjh22vog8rrd

https://www.oboom.com/FJJ3PSOX


Post a Comment

0 Comments