Search

Deadpool 2018 Super Duper Cut x264 720p Esub BluRay Dual Audio English Hindi GOPISAHI


Format                         : Matroska
Format version                 : Version 4 / Version 2
File size                      : 953 MiB
Duration                       : 2 h 13 min
Overall bit rate               : 994 kb/s
Movie name                     : Deadpool 2018 GOPISAHI

Video
Format                         : AVC
Format/Info                    : Advanced Video Codec
Codec ID                       : V_MPEG4/ISO/AVC
Duration                       : 2 h 13 min
Bit rate                       : 799 kb/s
Width                          : 1 280 pixels
Height                         : 534 pixels
Display aspect ratio           : 2.40:1
Original display aspect ratio  : 2.40:1
Frame rate mode                : Constant
Frame rate                     : 23.976 (24000/1001) FPS
Color space                    : YUV
Chroma subsampling             : 4:2:0
Bit depth                      : 8 bits
Scan type                      : Progressive
Bits/(Pixel*Frame)             : 0.049
Stream size                    : 765 MiB (80%)
Title                          : GOPISAHI
Writing library                : x264 core 155 r2901 7d0ff22

Audio #1
Format                         : AAC
Duration                       : 2 h 13 min
Bit rate                       : 96.0 kb/s
Channel(s)                     : 2 channels
Channel positions              : Front: L R
Sampling rate                  : 48.0 kHz
Frame rate                     : 46.875 FPS (1024 SPF)
Compression mode               : Lossy
Delay relative to video        : -21 ms
Stream size                    : 92.2 MiB (10%)
Title                          : GOPISAHI
Language                       : Hindi

Audio #2
Format                         : AAC
Duration                       : 2 h 13 min
Bit rate                       : 96.0 kb/s
Channel(s)                     : 2 channels
Channel positions              : Front: L R
Sampling rate                  : 48.0 kHz
Frame rate                     : 46.875 FPS (1024 SPF)
Compression mode               : Lossy
Delay relative to video        : -21 ms
Stream size                    : 92.1 MiB (10%)
Title                          : GOPISAHI
Language                       : English

Text
Language                       : English



TORRENT

MAGNET

https://linksclub.biz/drive/download.php?id=4de672862c875b006e56

https://linkstaker.bid/drive/download.php?id=08723199bfd47bcacfee

http://1upload.pw/Download.php?url=WTM2TmhUQVcvbGlUb0Mybk1MMVZLSmFQYkNWVjZYZVpRaXpvUkMxWU9Sam0zTkdWNGMyMS9TRWUrZk9hamI4UQ==

http://www.indishare.me/fcd58v0r3t6h

https://uptostream.com/33ihq6a2m7yo

https://uptobox.com/lwmeftl5tchq

https://bdupload.info/9lxfp7afjpp4

https://vidlox.me/01k82f76ig2t

https://uploadfiles.pw/6cce9c8c4efea81b

https://megaup.net/5cwr/Deadpool_2018_2018_Super_Duper_Cut_x264_720p_Esub_BluRay_Dual_Audio_English_Hindi_GOPISAHI.mkv

https://vidoza.net/ukwsjdlv6kgx.html

http://www.filefactory.com/file/6vlil7ufmqn1/

https://openload.co/f/ssMDIdydzoo/Deadpool%25202018%25202018%2520Super%2520Duper%2520Cut%2520x264%2520720p%2520Esub%2520BluRay%2520Dual%2520Audio%2520English%2520Hindi%2520GOPISAHI.mkv.mp4



 Deadpool 2
(2018) on IMDb

Post a Comment

3 Comments

  1. Kung fu panda secrets of the furious five 2008 please upload in hdrip or webdl
    http://www.solidfiles.com/d/dd5da60689/

    ReplyDelete
  2. Flash s1e2
    https://bdupload.info/nf88pbn3dbeo

    ReplyDelete
    Replies
    1. TV SESSION NOT SORRY FIND OTHER WEBSITE

      Delete