Search

Dil Jo Na Keh Saka 2017 x264 720p TV Hindi GOPISAHI


Format                         : Matroska
Format version                 : Version 4 / Version 2
File size                      : 506 MiB
Duration                       : 2 h 4 min
Overall bit rate               : 566 kb/s
Movie name                     : Dil Jo Na Keh Saka 2017 GOPISAHI

Video
Format                         : AVC
Format/Info                    : Advanced Video Codec
Codec ID                       : V_MPEG4/ISO/AVC
Duration                       : 2 h 4 min
Bit rate                       : 499 kb/s
Width                          : 1 280 pixels
Height                         : 544 pixels
Display aspect ratio           : 2.35:1
Frame rate mode                : Constant
Frame rate                     : 50.000 FPS
Color space                    : YUV
Chroma subsampling             : 4:2:0
Bit depth                      : 8 bits
Scan type                      : Progressive
Bits/(Pixel*Frame)             : 0.014
Stream size                    : 445 MiB (88%)
Title                          : GOPISAHI
Writing library                : x264 core 155 r2901 7d0ff22

Audio
Format                         : AAC
Format/Info                    : Advanced Audio Codec
Duration                       : 2 h 4 min
Bit rate                       : 64.1 kb/s
Channel(s)                     : 2 channels
Channel positions              : Front: L R
Sampling rate                  : 48.0 kHz
Frame rate                     : 46.875 FPS (1024 SPF)
Compression mode               : Lossy
Delay relative to video        : -21 ms
Stream size                    : 57.2 MiB (11%)
Title                          : GOPISAHI
Language                       : Hindi



TORRENT

MAGNET

https://linkstaker.bid/drive/download.php?id=0a29fa9c9e8ec880f1c6

https://linksclub.biz/drive/download.php?id=3bd59f2586ae1e823582

https://uploadfiles.pw/f1ff23e9bce16113

http://1upload.pw/Download.php?url=ZG1aelV4ek5yM2FxcVBVU3I2cWVMeXFmbTRJclg3U1d0K25SYWdJcmVRM2psNHg0TDJydUlBTUUvZmJ6RmRQNA==

https://www.oboom.com/7QH65OT8

https://megaup.net/5d4j/Dil_Jo_Na_Keh_Saka_2017_x264_720p_TV_Hindi_GOPISAHI.mkv

https://vidoza.net/0gq08kx4rum0.html

http://www.filefactory.com/file/35ba3x4un57r/

https://openload.co/f/3ofeTqaXSdA/Dil%2520Jo%2520Na%2520Keh%2520Saka%25202017%2520x264%2520720p%2520TV%2520Hindi%2520GOPISAHI.mkv.mp4

https://vidlox.me/sohegr5kwi72

http://www.indishare.me/srhwc8iqg8e6

https://uptobox.com/bybq7ny9r8te

https://uptostream.com/bybq7ny9r8te

https://bdupload.info/udlzvfnonr80

https://cloudvideo.tv/dl?op=download_orig&id=um7kx9kmmt1d&mode=n&hash=55639-117-241-1534771736-e4679d65a8b56c3dd8875269a3b03822

300 MB

 Dil Jo Na Keh Saka
(2017) on IMDb


Post a Comment

0 Comments