Search

Dog Day Afternoon 1975 x264 720p Esub BluRay Dual Audio English Hindi GOPISAHI


Format                         : Matroska
Format version                 : Version 4 / Version 2
File size                      : 904 MiB
Duration                       : 2 h 4 min
Overall bit rate               : 1 014 kb/s
Movie name                     : Dog Day Afternoon 1975 GOPISAHI

Video
Format                         : AVC
Format/Info                    : Advanced Video Codec
Codec ID                       : V_MPEG4/ISO/AVC
Duration                       : 2 h 4 min
Bit rate                       : 821 kb/s
Width                          : 1 280 pixels
Height                         : 720 pixels
Display aspect ratio           : 16:9
Frame rate mode                : Constant
Frame rate                     : 23.976 (24000/1001) FPS
Color space                    : YUV
Chroma subsampling             : 4:2:0
Bit depth                      : 8 bits
Scan type                      : Progressive
Bits/(Pixel*Frame)             : 0.037
Stream size                    : 732 MiB (81%)
Title                          : Dog Day Afternoon (1975) 720p BluRay x264 Dual Audio [English 5.1 + Hindi 5.1]
Writing library                : x264 core 125 r2200 999b753

Audio #1
Format                         : AAC
Format/Info                    : Advanced Audio Codec
Duration                       : 2 h 4 min
Bit rate                       : 96.0 kb/s
Channel(s)                     : 6 channels
Channel positions              : Front: L C R, Side: L R, LFE
Sampling rate                  : 48.0 kHz
Frame rate                     : 46.875 FPS (1024 SPF)
Compression mode               : Lossy
Stream size                    : 84.1 MiB (9%)

Audio #2
Format                         : AAC
Format/Info                    : Advanced Audio Codec
Duration                       : 2 h 4 min
Bit rate                       : 96.0 kb/s
Channel(s)                     : 6 channels
Channel positions              : Front: L C R, Side: L R, LFE
Sampling rate                  : 48.0 kHz
Frame rate                     : 46.875 FPS (1024 SPF)
Compression mode               : Lossy
Stream size                    : 85.1 MiB (9%)

Text
Duration                       : 1 h 58 min





 Dog Day Afternoon
(1975) on IMDb


Post a Comment

1 Comments

  1. Upload 720p complete season
    http://tamilrockers.cl/index.php/topic/76636-dietland-season-1-2018-complete-proper-720p-hdrip-tamil-hindi-eng-x264-4gb-esubs/

    ReplyDelete