Frequency 2000 720p Esub BluRay Dual Audio English Hindi GOPI SAHI

NOTE ORGNAL GOPI RIP TO OLD RIP REQUST MOVIE

Format                         : Matroska
Format version                 : Version 4 / Version 2
File size                      : 762 MiB
Duration                       : 1 h 58 min
Overall bit rate               : 899 kb/s
Movie name                     : Frequency 2000 GOPI SAHI

Video
Format                         : AVC
Format/Info                    : Advanced Video Codec
Format profile                 : [email protected]
Codec ID                       : V_MPEG4/ISO/AVC
Duration                       : 1 h 58 min
Bit rate                       : 792 kb/s
Width                          : 1 280 pixels
Height                         : 720 pixels
Display aspect ratio           : 16:9
Frame rate mode                : Constant
Frame rate                     : 23.976 (24000/1001) FPS
Color space                    : YUV
Chroma subsampling             : 4:2:0
Bit depth                      : 8 bits
Scan type                      : Progressive
Bits/(Pixel*Frame)             : 0.036
Stream size                    : 671 MiB (88%)
Title                          : GOPI SAHI
Writing library                : x264 core 115 r1995 c1e60b9

Audio #1
Format                         : AAC
Format/Info                    : Advanced Audio Codec
Codec ID                       : A_AAC-2
Duration                       : 1 h 58 min
Bit rate                       : 32.0 kb/s
Channel(s)                     : 2 channels
Channel positions              : Front: L R
Sampling rate                  : 48.0 kHz / 24.0 kHz
Frame rate                     : 23.438 FPS (1024 SPF)
Compression mode               : Lossy
Delay relative to video        : 400 ms
Stream size                    : 27.1 MiB (4%)
Title                          : GOPI SAHI
Language                       : English

Audio #2
Format                         : AAC
Format/Info                    : Advanced Audio Codec
Duration                       : 1 h 58 min
Bit rate                       : 72.0 kb/s
Channel(s)                     : 1 channel
Channel positions              : Front: C
Sampling rate                  : 44.1 kHz
Frame rate                     : 43.066 FPS (1024 SPF)
Compression mode               : Lossy
Stream size                    : 62.1 MiB (8%)
Title                          : GOPI SAHI
Language                       : Hindi

Text
Language                       : English




 Frequency
(2000) on IMDb


2

Post a Comment

0 Comments