Search

Happy Phirr Bhag Jayegi 2018 Hindi PRE-DVDRip x264 AAC GOPISAHI



General 
Complete name : Happy Phirr Bhag Jayegi 2018 Hindi PRE-DVDRip x264 AAC GOPISAHI.mkv 
Format : Matroska 
Format version : Version 4 / Version 2 
File size : 625 MiB 
Duration : 2h 9mn 
Overall bit rate : 674 Kbps 
=================================================================== 
Video 
ID : 1 
Format : AVC 
Format/Info : Advanced Video Codec 
Format profile : [email protected] 
Format settings, CABAC : Yes 
Format settings, ReFrames : 5 frames 
Codec ID : V_MPEG4/ISO/AVC 
Duration : 2h 9mn 
Bit rate : 448 Kbps 
Width : 688 pixels 
Height : 300 pixels 
Display aspect ratio : 2.25:1 
Frame rate mode : Constant 
Frame rate : 25.000 fps 
Color space : YUV 
Chroma subsampling : 4:2:0 
Bit depth : 8 bits 
Scan type : Progressive 
Bits/(Pixel*Frame) : 0.087 
Stream size : 416 MiB (67%) 
Default : Yes 
Forced : No 
=================================================================== 
Audio 
ID : 2 
Format : AAC 
Format/Info : Advanced Audio Codec 
Format profile : LC 
Codec ID : A_AAC 
Duration : 2h 9mn 
Bit rate : 223 Kbps 
Channel(s) : 2 channels 
Channel positions : Front: L R 
Sampling rate : 44.1 KHz 
Frame rate : 43.066 fps (1024 spf) 
Compression mode : Lossy 
Stream size : 207 MiB (33%) 
Default : Yes 
Forced : No












 Happy Phirr Bhag Jayegi
(2018) on IMDb

Post a Comment

0 Comments