Search

Harry Potter And The Chamber Of Secrets 2002 x264 720p Esub BluRay Dual Audio English Hindi GOPISAHI


Format                         : Matroska
Format version                 : Version 4 / Version 2
File size                      : 950 MiB
Duration                       : 2 h 47 min
Overall bit rate               : 794 kb/s
Movie name                     : Harry Potter And The Chamber Of Secrets 2002 GOPISAHI

Video
Format                         : AVC
Format/Info                    : Advanced Video Codec
Codec ID                       : V_MPEG4/ISO/AVC
Duration                       : 2 h 47 min
Bit rate                       : 599 kb/s
Width                          : 1 280 pixels
Height                         : 528 pixels
Display aspect ratio           : 2.40:1
Frame rate mode                : Constant
Frame rate                     : 25.000 FPS
Color space                    : YUV
Chroma subsampling             : 4:2:0
Bit depth                      : 8 bits
Scan type                      : Progressive
Bits/(Pixel*Frame)             : 0.035
Stream size                    : 716 MiB (75%)
Title                          : GOPISAHI
Writing library                : x264 core 155 r2901 7d0ff22

Audio #1
Format                         : AAC
Duration                       : 2 h 47 min
Bit rate                       : 96.0 kb/s
Channel(s)                     : 2 channels
Channel positions              : Front: L R
Sampling rate                  : 48.0 kHz
Frame rate                     : 46.875 FPS (1024 SPF)
Compression mode               : Lossy
Delay relative to video        : -21 ms
Stream size                    : 115 MiB (12%)
Title                          : GOPISAHI
Language                       : Hindi

Audio #2
Format                         : AAC
Format/Info                    : Advanced Audio Codec
Duration                       : 2 h 47 min
Bit rate                       : 96.0 kb/s
Channel(s)                     : 2 channels
Channel positions              : Front: L R
Sampling rate                  : 48.0 kHz
Frame rate                     : 46.875 FPS (1024 SPF)
Compression mode               : Lossy
Delay relative to video        : -21 ms
Stream size                    : 115 MiB (12%)
Title                          : GOPISAHI
Language                       : English



TORRENT

MAGNET

http://www.mediafire.com/file/u1vffa6v5ys7da6/H_P_AC_Of_S_2002_.zip/file

https://uploadfiles.pw/b23b113da4d87365

https://megaup.net/9p76/Harry_Potter_And_The_Chamber_Of_Secrets_2002_x264_720p_Esub_BluRay_Dual_Audio_English_Hindi_GOPISAHI.mkv

http://www.indishare.me/c7b1k2i9ti5c

https://www.oboom.com/QQ0KXJNP

https://uptobox.com/sk8wn2iz2vaa

https://uptostream.com/sk8wn2iz2vaa

https://bdupload.info/ofye6lkyteo8
https://openload.co/f/uY3F9L4V-e0/Harry_Potter_And_The_Chamber_Of_Secrets_2002_x264_720p_Esub_BluRay_Dual_Audio_English_Hindi_GOPISAHI.mkv.mp4

https://vidoza.net/2gi1tpdqeun2.html

http://www.filefactory.com/file/1miop4lrxbnh/

https://vidlox.me/4943qk3gygm0

400 MB HINDI

 Harry Potter and the Chamber of Secrets
(2002) on IMDb


Post a Comment

0 Comments