Search

Harry Potter And The Deathly Hallows Part 1 2010 x264 720p Esub BluRay Dual Audio English Hindi GOPISAHI


Format                         : Matroska
Format version                 : Version 4 / Version 2
File size                      : 784 MiB
Duration                       : 2 h 18 min
Overall bit rate               : 794 kb/s
Movie name                     : 7 Harry Potte GOPISAHI

Video
Format                         : AVC
Format/Info                    : Advanced Video Codec
Format profile                 : [email protected]
Codec ID                       : V_MPEG4/ISO/AVC
Duration                       : 2 h 18 min
Bit rate                       : 599 kb/s
Width                          : 1 280 pixels
Height                         : 528 pixels
Display aspect ratio           : 2.40:1
Frame rate mode                : Constant
Frame rate                     : 23.976 (24000/1001) FPS
Color space                    : YUV
Chroma subsampling             : 4:2:0
Bit depth                      : 8 bits
Scan type                      : Progressive
Bits/(Pixel*Frame)             : 0.037
Stream size                    : 592 MiB (75%)
Title                          : GOPISAHI
Writing library                : x264 core 155 r2901 7d0ff22

Audio #1
Format                         : AAC
Format/Info                    : Advanced Audio Codec
Duration                       : 2 h 18 min
Bit rate                       : 96.0 kb/s
Channel(s)                     : 2 channels
Channel positions              : Front: L R
Sampling rate                  : 48.0 kHz
Frame rate                     : 46.875 FPS (1024 SPF)
Compression mode               : Lossy
Delay relative to video        : -21 ms
Stream size                    : 94.9 MiB (12%)
Title                          : GOPISAHI
Language                       : Hindi

Audio #2
Format                         : AAC
Format/Info                    : Advanced Audio Codec
Duration                       : 2 h 18 min
Bit rate                       : 96.0 kb/s
Channel(s)                     : 2 channels
Channel positions              : Front: L R
Sampling rate                  : 48.0 kHz
Frame rate                     : 46.875 FPS (1024 SPF)
Compression mode               : Lossy
Delay relative to video        : -21 ms
Stream size                    : 94.9 MiB (12%)
Title                          : GOPISAHI
Language                       : English

Text
Language                       : English



TORRENT

MAGNET

https://uploadfiles.pw/cee229dfa85eca3f

https://www.oboom.com/PV57LJCT

http://www.indishare.me/n345g9lmub00

https://megaup.net/m1hk/Harry_Potter_And_The_Deathly_Hallows_Part_1_2010_x264_720p_Esub_BluRay_Dual_Audio_English_Hindi_GOPISAHI.mkv

http://www.mediafire.com/file/6wh6whl2z0r66kq/H_P_And_T_D_H_P_1_2010.zi/file

https://bdupload.info/v0pjlzvpyt9e

https://uptobox.com/6v5if1wh8w92

https://uptostream.com/rjvtf66sqa9r

https://openload.co/f/xmrJkA0hIr8/Harry%2520Potter%2520And%2520The%2520Deathly%2520Hallows%2520Part%25201%25202010%2520x264%2520720p%2520Esub%2520BluRay%2520Dual%2520Audio%2520English%2520Hindi%2520GOPISAHI.mkv.mp4

https://vidoza.net/cswg3e3q10sh.html

http://www.filefactory.com/file/25nav6ri6cxd/


 Harry Potter and the Deathly Hallows: Part 1
(2010) on IMDb

Post a Comment

0 Comments