Search

Harry Potter And The Half-Blood Prince 2009 x264 720p Esub BluRay Dual Audio English Hindi GOPISAHI


Format                         : Matroska
Format version                 : Version 4 / Version 2
File size                      : 833 MiB
Duration                       : 2 h 26 min
Overall bit rate               : 794 kb/s
Movie name                     : 6 Harry Potte GOPISAHI

Video
Format                         : AVC
Format/Info                    : Advanced Video Codec
Codec ID                       : V_MPEG4/ISO/AVC
Duration                       : 2 h 26 min
Bit rate                       : 599 kb/s
Width                          : 1 264 pixels
Height                         : 534 pixels
Display aspect ratio           : 2.35:1
Frame rate mode                : Constant
Frame rate                     : 23.976 (24000/1001) FPS
Color space                    : YUV
Chroma subsampling             : 4:2:0
Bit depth                      : 8 bits
Scan type                      : Progressive
Bits/(Pixel*Frame)             : 0.037
Stream size                    : 628 MiB (75%)
Title                          : GOPISAHI
Writing library                : x264 core 155 r2901 7d0ff22

Audio #1
Format                         : AAC
Format/Info                    : Advanced Audio Codec
Duration                       : 2 h 26 min
Bit rate                       : 96.0 kb/s
Channel(s)                     : 2 channels
Channel positions              : Front: L R
Sampling rate                  : 48.0 kHz
Frame rate                     : 46.875 FPS (1024 SPF)
Compression mode               : Lossy
Delay relative to video        : 1 s 0 ms
Stream size                    : 101 MiB (12%)
Title                          : GOPISAHI
Language                       : Hindi

Audio #2
Format                         : AAC
Format/Info                    : Advanced Audio Codec
Duration                       : 2 h 26 min
Bit rate                       : 96.0 kb/s
Channel(s)                     : 2 channels
Channel positions              : Front: L R
Sampling rate                  : 48.0 kHz
Frame rate                     : 46.875 FPS (1024 SPF)
Compression mode               : Lossy
Delay relative to video        : -21 ms
Stream size                    : 101 MiB (12%)
Title                          : GOPISAHI
Language                       : English

Text
Language                       : English



TORRENT

MAGNET

https://linkstaker.bid/drive/download.php?id=bceebe483644c0a8d7ab

http://1upload.pw/Download.php?url=S0tpa3F2bHZlOWoyOFY3ZlplbVJ5bXRqODFFZTIza2Z2OUdpWjVhb0ZudElQbnRxcWFDVDFpNUFBQUZiek4zLw==

https://linksclub.biz/drive/download.php?id=75e08817a0ae6cc61df4

https://uploadfiles.pw/4f9e554d5078c4f6

http://www.indishare.me/icbs3s6epp00

https://uptobox.com/lsh54136ut0m

https://uptostream.com/lsh54136ut0m

https://bdupload.info/0ukm1euj2xxv

https://www.oboom.com/DTYZA58Q

https://megaup.net/9qkY/Harry_Potter_And_The_Half-Blood_Prince_2009_x264_720p_Esub_BluRay_Dual_Audio_English_Hindi_GOPISAHI.mkv

http://www.filefactory.com/file/730yief5rdkf/

https://openload.co/f/mrxzJlddoz8/Harry%2520Potter%2520And%2520The%2520Half-Blood%2520Prince%25202009%2520x264%2520720p%2520Esub%2520BluRay%2520Dual%2520Audio%2520English%2520Hindi%2520GOPISAHI.mkv

https://vidoza.net/46l6prhmbrgf.html

https://vidlox.me/ge4lv4q5wyqw

260 mb hindi

 Harry Potter and the Half-Blood Prince
(2009) on IMDb


Post a Comment

0 Comments