Search

Harry Potter And The Order Of The Phoenix 2007 x264 720p Esub BluRay Dual Audio English Hindi GOPISAHI


Format                         : Matroska
Format version                 : Version 4 / Version 2
File size                      : 739 MiB
Duration                       : 2 h 10 min
Overall bit rate               : 794 kb/s
Movie name                     : 5 Harry Potte GOPISAHI

Video
Format                         : AVC
Format/Info                    : Advanced Video Codec
Codec ID                       : V_MPEG4/ISO/AVC
Duration                       : 2 h 10 min
Bit rate                       : 599 kb/s
Width                          : 1 280 pixels
Height                         : 528 pixels
Display aspect ratio           : 2.40:1
Frame rate mode                : Constant
Frame rate                     : 23.976 (24000/1001) FPS
Color space                    : YUV
Chroma subsampling             : 4:2:0
Bit depth                      : 8 bits
Scan type                      : Progressive
Bits/(Pixel*Frame)             : 0.037
Stream size                    : 557 MiB (75%)
Title                          : GOPISAHI
Writing library                : x264 core 155 r2901 7d0ff22

Audio #1
Format                         : AAC
Duration                       : 2 h 10 min
Bit rate                       : 96.0 kb/s
Channel(s)                     : 2 channels
Channel positions              : Front: L R
Sampling rate                  : 48.0 kHz
Frame rate                     : 46.875 FPS (1024 SPF)
Compression mode               : Lossy
Delay relative to video        : -21 ms
Stream size                    : 89.4 MiB (12%)
Title                          : GOPISAHI
Language                       : Hindi

Audio #2
Format                         : AAC
Duration                       : 2 h 10 min
Bit rate                       : 96.0 kb/s
Channel(s)                     : 2 channels
Channel positions              : Front: L R
Sampling rate                  : 48.0 kHz
Frame rate                     : 46.875 FPS (1024 SPF)
Compression mode               : Lossy
Delay relative to video        : 31 ms
Stream size                    : 89.4 MiB (12%)
Title                          : GOPISAHI
Language                       : English

Text
Language                       : English



TORRENT

MAGNET

http://www.indishare.me/24rfx4eyh38l

https://www.oboom.com/ZFOU687U

https://megaup.net/hOmF/Harry_Potter_And_The_Order_Of_The_Phoenix_2007_x264_720p_Esub_BluRay_Dual_Audio_English_Hindi_GOPISAHI.mkv

https://bdupload.info/gmqsobyuhevi

http://www.mediafire.com/file/3q6ub70ugw0yhyl/H_P_d_T_O_f_T_P_2007_.zip/file

https://uploadfiles.pw/aea84558d9dcc50c

https://uptobox.com/crj2tcvb0ay8

https://uptostream.com/crj2tcvb0ay8

https://openload.co/f/I-E-Z96gjU8/Harry_Potter_And_The_Order_Of_The_Phoenix_2007_x264_720p_Esub_BluRay_Dual_Audio_English_Hindi_GOPISAHI.mkv.mp4

https://vidoza.net/iybx773x73f2.html

https://vidlox.me/haw9ypv6g6jj

http://www.filefactory.com/file/jc1l2fo7h49/

300 MB HINDI

 Harry Potter and the Order of the Phoenix
(2007) on IMDb


Post a Comment

2 Comments

  1. Dog day afternoon 1975 HindI this link for 24 hours
    https://nl24.seedr.cc/ff_get/313949272/Dog%20Day%20Afternoon%20(1975)%20720p%20BluRay%20x264%20Dual%20Audio%20[English%205.1%20%20Hindi%205.1].mkv?st=byFQSIlcKBl9LOdbdop2RQ&e=1535026254

    ReplyDelete
    Replies
    1. i have bluray alredy thanks keep it up

      Delete