Search

Heaven Is For Real 2014 x264 720p Esub BluRay Dual Audio English Hindi GOPISAHI

Format                         : Matroska
Format version                 : Version 4 / Version 2
File size                      : 565 MiB
Duration                       : 1 h 39 min
Overall bit rate               : 793 kb/s
Movie name                     : Heaven Is For Real 2014 GOPISAHI

Video
Format                         : AVC
Format/Info                    : Advanced Video Codec
Format profile                 : [email protected]
Format settings                : CABAC / 16 Ref Frames
Codec ID                       : V_MPEG4/ISO/AVC
Duration                       : 1 h 39 min
Bit rate                       : 599 kb/s
Width                          : 1 280 pixels
Height                         : 536 pixels
Display aspect ratio           : 2.40:1
Frame rate mode                : Constant
Frame rate                     : 23.976 (24000/1001) FPS
Color space                    : YUV
Chroma subsampling             : 4:2:0
Bit depth                      : 8 bits
Scan type                      : Progressive
Bits/(Pixel*Frame)             : 0.036
Stream size                    : 426 MiB (75%)
Title                          : GOPISAHI
Writing library                : x264 core 155 r2901 7d0ff22

Audio #1
Format                         : AAC
Duration                       : 1 h 39 min
Bit rate                       : 96.0 kb/s
Channel(s)                     : 2 channels
Channel positions              : Front: L R
Sampling rate                  : 48.0 kHz
Frame rate                     : 46.875 FPS (1024 SPF)
Compression mode               : Lossy
Delay relative to video        : -21 ms
Stream size                    : 68.3 MiB (12%)
Title                          : GOPISAHI
Language                       : Hindi

Audio #2
Format                         : AAC
Format/Info                    : Advanced Audio Codec
Duration                       : 1 h 39 min
Bit rate                       : 96.0 kb/s
Channel(s)                     : 2 channels
Channel positions              : Front: L R
Sampling rate                  : 48.0 kHz
Frame rate                     : 46.875 FPS (1024 SPF)
Compression mode               : Lossy
Delay relative to video        : -21 ms
Stream size                    : 68.4 MiB (12%)
Title                          : GOPISAHI
Language                       : English

Text
Language                       : English



TORRENT

MAGNET

http://1upload.pw/Download.php?url=MEZKYi9JczJaTStsVHhEdFlBaHI1VHc2TGdZM3BWelF3SmwxRUlqVWMzWHM4WTJRZStBZUpLanErMzZEOUsvQQ==

https://linkstaker.bid/drive/download.php?id=eaf0126ab6df117bb466

https://linksclub.biz/drive/download.php?id=b57e4ebab20ab7d256ea

https://uploadfiles.pw/bc7e1342a9d0c9d8

https://www.oboom.com/6J6UL9QQ

https://megaup.net/lZky/Heaven_Is_For_Real_2014_x264_720p_Esub_BluRay_Dual_Audio_English_Hindi_GOPISAHI.mkv

https://openload.co/f/Daebf0MYnN8/Heaven%2520Is%2520For%2520Real%25202014%2520x264%2520720p%2520Esub%2520BluRay%2520Dual%2520Audio%2520English%2520Hindi%2520GOPISAHI.mkv

http://www.filefactory.com/file/3fii9doxlpvl/

https://vidoza.net/dtc7z4t6xmcw.html

https://vidlox.me/qmr1rjmia78c

http://www.indishare.me/dgkwtjld051e

https://uptobox.com/qgr5xrvo3sjm

https://bdupload.info/0ka8e8ohhg7y

https://uptostream.com/qgr5xrvo3sjm

 Heaven Is for Real
(2014) on IMDb

Post a Comment

0 Comments