Search

Krishna Gaadi Veera Prema Gaadha 2016 x264 720p Esub BluRay Dual Audio Hindi Telugu GOPISAHI


Format                         : Matroska
Format version                 : Version 4 / Version 2
File size                      : 720 MiB
Duration                       : 2 h 25 min
Overall bit rate               : 694 kb/s
Movie name                     : Krishna Gaadi Veera Prema Gaadha 2016 GOPISAHI

Video
Format                         : AVC
Format/Info                    : Advanced Video Codec
Codec ID                       : V_MPEG4/ISO/AVC
Duration                       : 2 h 25 min
Bit rate                       : 499 kb/s
Width                          : 1 280 pixels
Height                         : 544 pixels
Display aspect ratio           : 2.35:1
Frame rate mode                : Constant
Frame rate                     : 24.000 FPS
Color space                    : YUV
Chroma subsampling             : 4:2:0
Bit depth                      : 8 bits
Scan type                      : Progressive
Bits/(Pixel*Frame)             : 0.030
Stream size                    : 518 MiB (72%)
Title                          : GOPISAHI
Writing library                : x264 core 155 r2901 7d0ff22

Audio #1
Format                         : AAC
Format/Info                    : Advanced Audio Codec
Duration                       : 2 h 25 min
Bit rate                       : 96.0 kb/s
Channel(s)                     : 2 channels
Channel positions              : Front: L R
Sampling rate                  : 48.0 kHz
Frame rate                     : 46.875 FPS (1024 SPF)
Compression mode               : Lossy
Delay relative to video        : 78 ms
Stream size                    : 100.0 MiB (14%)
Title                          : GOPISAHI
Language                       : Hindi

Audio #2
Format                         : AAC
Format/Info                    : Advanced Audio Codec
Duration                       : 2 h 25 min
Bit rate                       : 96.0 kb/s
Channel(s)                     : 2 channels
Channel positions              : Front: L R
Sampling rate                  : 48.0 kHz
Frame rate                     : 46.875 FPS (1024 SPF)
Compression mode               : Lossy
Delay relative to video        : -21 ms
Stream size                    : 99.3 MiB (14%)
Title                          : GOPISAHI
Language                       : Telugu

Text
Language                       : English




TORRENT

MAGNET

http://www.indishare.me/sim55hxhucb2

https://bdupload.info/hrxluc7ytxhv

https://uptostream.com/p0g2lqz6ki5y

https://uptobox.com/p0g2lqz6ki5y

https://www.oboom.com/78V32XEY

https://uploadfiles.pw/1b818c923324f4d0

http://1upload.pw/Download.php?url=MElpbkw4cmFkdytwRENMVitIL2c3cWJLY0VCeHNKY3NNbmlseEhZZ1RPN2FKNE1obHFRdEVFWVA0VGUzRG94VQ==

https://linkstaker.bid/drive/download.php?id=6af11397562bd9061449

https://linksclub.biz/drive/download.php?id=716ba6ddb5a895e3683a

https://vidoza.net/ycpdm6rzn3pr.html

https://openload.co/f/ZgjBzh2PnUc/Krishna%2520Gaadi%2520Veera%2520Prema%2520Gaadha%25202016%2520x264%2520720p%2520Esub%2520BluRay%2520Dual%2520Audio%2520Hindi%2520Telugu%2520GOPISAHI.mkv

https://megaup.net/hQpG/Krishna_Gaadi_Veera_Prema_Gaadha_2016_x264_720p_Esub_BluRay_Dual_Audio_Hindi_Telugu_GOPISAHI.mkv

 http://www.filefactory.com/file/jbnq30bl0wf/


Post a Comment

0 Comments