Search

Kuldip Patwal I Didnt Do It 2018 x264 720p Esub DVD Hindi GOPISAHI


Format                         : Matroska
Format version                 : Version 4 / Version 2
File size                      : 543 MiB
Duration                       : 2 h 7 min
Overall bit rate               : 597 kb/s
Movie name                     : Kuldip Patwal I Didnt Do It 2018 GOPISAHI

Video
Format                         : AVC
Format/Info                    : Advanced Video Codec
Codec ID                       : V_MPEG4/ISO/AVC
Duration                       : 2 h 7 min
Bit rate                       : 499 kb/s
Width                          : 1 280 pixels
Height                         : 640 pixels
Display aspect ratio           : 2.40:1
Frame rate mode                : Constant
Frame rate                     : 29.970 (30000/1001) FPS
Color space                    : YUV
Chroma subsampling             : 4:2:0
Bit depth                      : 8 bits
Scan type                      : Progressive
Bits/(Pixel*Frame)             : 0.020
Stream size                    : 453 MiB (84%)
Title                          : GOPISAHI
Writing library                : x264 core 155 r2901 7d0ff22

Audio
Format                         : AAC
Format/Info                    : Advanced Audio Codec
Duration                       : 2 h 7 min
Bit rate                       : 96.0 kb/s
Channel(s)                     : 2 channels
Channel positions              : Front: L R
Sampling rate                  : 48.0 kHz
Frame rate                     : 46.875 FPS (1024 SPF)
Compression mode               : Lossy
Delay relative to video        : -21 ms
Stream size                    : 87.1 MiB (16%)
Title                          : GOPISAHI
Language                       : Hindi

Text
Language                       : English



TORRENT

MAGNET

http://1upload.pw/Download.php?url=VlFLSnk2dTkxM0Y0U3lTUlVjaUFNZWNRUE9RTHR6Z2g1eGp5Mit3bmwvSTZRTkN3d0R6QklKMzkycVJ5TlpQRw==

https://linkstaker.bid/drive/download.php?id=6904c6b62bcf96db9980

https://linksclub.biz/drive/download.php?id=ce68158453281b96d64c

http://www.indishare.me/ncomzh4yzrh2

https://uptobox.com/ckv8uy5uyqun

https://uptostream.com/ckv8uy5uyqun

https://bdupload.info/cvvsggqn0lij

https://uploadfiles.pw/a4df23c4beb45023

https://megaup.net/9phW/Kuldip_Patwal_I_Didnt_Do_It_2018_x264_720p_Esub_DVD_Hindi_GOPISAHI.mkv

https://www.oboom.com/5I5IZOM2

http://www.filefactory.com/file/husd3isv1jx/

https://vidoza.net/1aqkiwecfb63.html

https://openload.co/f/ZAZeM7ONzAM/Kuldip%2520Patwal%2520I%2520Didnt%2520Do%2520It%25202018%2520x264%2520720p%2520Esub%2520DVD%2520Hindi%2520GOPISAHI.mkv.mp4




 Kuldip Patwal: I Didn't Do It!
(2017) on IMDb


Post a Comment

0 Comments