Search

Kung Fu Panda - Secrets Of The Furious Five 2008 x264 720p TV Dual Audio English Hindi GOPISAHI


Format                         : Matroska
Format version                 : Version 4 / Version 2
File size                      : 157 MiB
Duration                       : 24 min 40 s
Overall bit rate               : 888 kb/s
Movie name                     : Kung Fu Panda - Secrets Of The Furious Five 2008 GOPISAHI

Video
Format                         : AVC
Format/Info                    : Advanced Video Codec
Codec ID                       : V_MPEG4/ISO/AVC
Duration                       : 24 min 40 s
Bit rate                       : 699 kb/s
Width                          : 1 280 pixels
Height                         : 720 pixels
Display aspect ratio           : 1.939
Frame rate mode                : Constant
Frame rate                     : 23.976 (24000/1001) FPS
Color space                    : YUV
Chroma subsampling             : 4:2:0
Bit depth                      : 8 bits
Scan type                      : Progressive
Bits/(Pixel*Frame)             : 0.032
Stream size                    : 123 MiB (79%)
Title                          : GOPISAHI
Writing library                : x264 core 155 r2901 7d0ff22

Audio #1
Format                         : AAC
Format/Info                    : Advanced Audio Codec
Duration                       : 23 min 8 s
Bit rate                       : 96.0 kb/s
Channel(s)                     : 2 channels
Channel positions              : Front: L R
Sampling rate                  : 48.0 kHz
Frame rate                     : 46.875 FPS (1024 SPF)
Compression mode               : Lossy
Delay relative to video        : -21 ms
Stream size                    : 15.9 MiB (10%)
Title                          : GOPISAHI
Language                       : Hindi

Audio #2
Format                         : AAC
Duration                       : 24 min 35 s
Bit rate                       : 96.0 kb/s
Channel(s)                     : 2 channels
Channel positions              : Front: L R
Sampling rate                  : 48.0 kHz
Frame rate                     : 46.875 FPS (1024 SPF)
Compression mode               : Lossy
Delay relative to video        : -21 ms
Stream size                    : 16.9 MiB (11%)
Title                          : GOPISAHI
Language                       : English



TORRENT

MAGNET

http://www.indishare.me/el808kqeo04n

https://uploadfiles.pw/7e8dd30fa42dfffc

https://www.oboom.com/8658O9TJ

https://megaup.net/5dsr/Kung_Fu_Panda_-_Secrets_Of_The_Furious_Five_2008_x264_720p_TV_Dual_Audio_English_Hindi_GOPISAHI.mkv

http://www.mediafire.com/file/m5bg9s2tdla8a48/K_F_P_-_S_f_T_F_F_2008_.zip/file

http://www.filefactory.com/file/3g6847eouph7/

https://vidoza.net/iczi5mtqegnv.html

https://openload.co/f/29McOA4Ejpw/Kung%2520Fu%2520Panda%2520-%2520Secrets%2520Of%2520The%2520Furious%2520Five%25202008%2520x264%2520720p%2520TV%2520Dual%2520Audio%2520English%2520Hindi%2520GOPISAHI.mkv.mp4

https://bdupload.info/h9kxorkikovp

https://vidlox.me/cty86jj7gui3 
 Kung Fu Panda: Secrets of the Furious Five
(2008) on IMDb


Post a Comment

0 Comments