Search

Legion 2010 x264 720p Esub BluRay Dual Audio English Hindi GOPISAHI


Format                         : Matroska
Format version                 : Version 4 / Version 2
File size                      : 805 MiB
Duration                       : 1 h 40 min
Overall bit rate               : 1 125 kb/s
Movie name                     : Legion 2010 GOPISAHI

Video
Format                         : AVC
Format/Info                    : Advanced Video Codec
Codec ID                       : V_MPEG4/ISO/AVC
Duration                       : 1 h 40 min
Bit rate                       : 952 kb/s
Width                          : 1 280 pixels
Height                         : 528 pixels
Display aspect ratio           : 2.40:1
Frame rate mode                : Constant
Frame rate                     : 23.976 (24000/1001) FPS
Color space                    : YUV
Chroma subsampling             : 4:2:0
Bit depth                      : 8 bits
Scan type                      : Progressive
Bits/(Pixel*Frame)             : 0.059
Stream size                    : 681 MiB (85%)
Writing library                : x264 core 120 r2164 da19765

Audio #1
Format                         : AAC
Format/Info                    : Advanced Audio Codec
Duration                       : 1 h 40 min
Bit rate                       : 86.8 kb/s
Channel(s)                     : 6 channels
Channel positions              : Front: L C R, Side: L R, LFE
Sampling rate                  : 44.1 kHz
Frame rate                     : 43.066 FPS (1024 SPF)
Compression mode               : Lossy
Stream size                    : 62.2 MiB (8%)
Title                          : GOPISAHI
Language                       : Hindi

Audio #2
Format                         : AAC
Format/Info                    : Advanced Audio Codec
Duration                       : 1 h 40 min
Bit rate                       : 83.4 kb/s
Channel(s)                     : 6 channels
Channel positions              : Front: L C R, Side: L R, LFE
Sampling rate                  : 44.1 kHz
Frame rate                     : 43.066 FPS (1024 SPF)
Compression mode               : Lossy
Stream size                    : 59.7 MiB (7%)
Title                          : GOPISAHI
Language                       : English

Text
Language                       : English



TORRENT

MAGNET


 Legion
(2010) on IMDb

Post a Comment

0 Comments