Search

Madagascar 3 Europes Most Wanted 2012 x264 720p Esub BluRay Dual Audio English Hindi GOPISAHI


Format                         : Matroska
Format version                 : Version 4 / Version 2
File size                      : 767 MiB
Duration                       : 1 h 33 min
Overall bit rate               : 1 148 kb/s
Movie name                     : Madagascar 3 Europes Most Wanted 2012 GOPISAHI

Video
Format                         : AVC
Format/Info                    : Advanced Video Codec
Codec ID                       : V_MPEG4/ISO/AVC
Duration                       : 1 h 33 min
Bit rate                       : 948 kb/s
Width                          : 1 280 pixels
Height                         : 720 pixels
Display aspect ratio           : 16:9
Frame rate mode                : Constant
Frame rate                     : 23.976 (24000/1001) FPS
Color space                    : YUV
Chroma subsampling             : 4:2:0
Bit depth                      : 8 bits
Scan type                      : Progressive
Bits/(Pixel*Frame)             : 0.043
Stream size                    : 633 MiB (83%)
Title                          : GOPISAHI
Writing library                : x264 core 125 r2200 999b753

Audio #1
Format                         : AAC
Format/Info                    : Advanced Audio Codec
Duration                       : 1 h 33 min
Bit rate                       : 99.6 kb/s
Channel(s)                     : 6 channels
Channel positions              : Front: L C R, Side: L R, LFE
Sampling rate                  : 48.0 kHz
Frame rate                     : 46.875 FPS (1024 SPF)
Compression mode               : Lossy
Delay relative to video        : -125 ms
Stream size                    : 66.6 MiB (9%)
Title                          : GOPISAHI
Language                       : Hindi

Audio #2
Format                         : AAC
Format/Info                    : Advanced Audio Codec
Duration                       : 1 h 33 min
Bit rate                       : 96.0 kb/s
Channel(s)                     : 6 channels
Channel positions              : Front: L C R, Side: L R, LFE
Sampling rate                  : 48.0 kHz
Frame rate                     : 46.875 FPS (1024 SPF)
Compression mode               : Lossy
Delay relative to video        : -125 ms
Stream size                    : 65.4 MiB (9%)
Title                          : GOPISAHI
Language                       : English

Text
Language                       : English



TORRENT

MAGNET

http://1upload.pw/Download.php?url=VXdSU1BYQjlkMlo4MkZYTUhKTTlxMGFIOGpDMWRkaEpOUU9NZ1o4WWthdHdFcnV4bDNrZCsrcVBXZnkyS3k1bA==

https://linkstaker.bid/drive/download.php?id=693578e32f151f953d32

https://linksclub.biz/drive/download.php?id=97bd746fa8734d04673b

https://uptobox.com/yzcmfvmh7l6b

http://www.indishare.me/woybc0efocjp

https://bdupload.info/f2txoqogxgtw

https://megaup.net/lYcX/Madagascar_3_Europes_Most_Wanted_2012_x264_720p_Esub_BluRay_Dual_Audio_English_Hindi_GOPISAHI.mkv

https://www.oboom.com/J1COY4F2

https://uploadfiles.pw/7aab65a99aad3b5c

https://vidlox.me/5na6dybjg54z

http://www.filefactory.com/file/nirjb19y9bj/

https://openload.co/f/nAJFI309Has/Madagascar%25203%2520Europes%2520Most%2520Wanted%25202012%2520x264%2520720p%2520Esub%2520BluRay%2520Dual%2520Audio%2520English%2520Hindi%2520GOPISAHI.mkv.mp4

https://vidoza.net/bshcp577d0x4.html


200 MB HINDI

 Madagascar 3: Europe's Most Wanted
(2012) on IMDb


Post a Comment

3 Comments

  1. Your screenshots are always not too clear please try

    http://portableappz.blogspot.com/2017/01/potplayer-1663891-32-64-bit-multilingual.html?m=1

    Play your movie and right click and go to video option and then go to capture/grabber then thumbnail

    Okk

    ReplyDelete
  2. BROTHER SCREEN SHOTS MEI KYA RAKHA HAI JUT IMAGE / QULITY KA BATAO JE PROBLEM HAI

    ReplyDelete
  3. Quality Low size me mast h
    4.9 star out of 5

    ReplyDelete