Search

Na Maloom Afraad 2 2017 720p TV Urdu GOPISAHI


Format                         : Matroska
Format version                 : Version 4 / Version 2
File size                      : 595 MiB
Duration                       : 1 h 59 min
Overall bit rate               : 697 kb/s
Movie name                     : Na Maloom Afraad 2 2017 GOPISAHI

Video
Format                         : AVC
Format/Info                    : Advanced Video Codec
Codec ID                       : V_MPEG4/ISO/AVC
Duration                       : 1 h 59 min
Bit rate                       : 599 kb/s
Width                          : 1 280 pixels
Height                         : 536 pixels
Display aspect ratio           : 2.40:1
Frame rate mode                : Constant
Frame rate                     : 24.000 FPS
Color space                    : YUV
Chroma subsampling             : 4:2:0
Bit depth                      : 8 bits
Scan type                      : Progressive
Bits/(Pixel*Frame)             : 0.036
Stream size                    : 511 MiB (86%)
Title                          : GOPISAHI
Writing library                : x264 core 155 r2901 7d0ff22

Audio
Format                         : AAC
Format/Info                    : Advanced Audio Codec
Duration                       : 1 h 59 min
Bit rate                       : 96.0 kb/s
Channel(s)                     : 2 channels
Channel positions              : Front: L R
Sampling rate                  : 48.0 kHz
Frame rate                     : 46.875 FPS (1024 SPF)
Compression mode               : Lossy
Delay relative to video        : -21 ms
Stream size                    : 81.6 MiB (14%)
Title                          : GOPISAHI
Language                       : Urdu



TORRENT

MAGNET

https://uploadfiles.pw/11eac8d8be4759c7

http://1upload.pw/Download.php?url=T2dLcWZiODhLb1ZzQjhLbjJBQU9YOEVXS0laLzFXMmNKckFtN210dno3MUdjcnI0SVhHcFNocm5NTzhKUEsvQg==

https://linkstaker.bid/drive/download.php?id=5f8d5ceb5653a72d7651

https://linksclub.biz/drive/download.php?id=c48a693932a0fa9b80bb

http://www.indishare.me/shgqzh20fi8u

https://www.oboom.com/RWFNSW3E

https://megaup.net/hPnQ/Na_Maloom_Afraad_2_2017_720p_TV_Urdu_GOPISAHI.mkv

https://vidoza.net/c26qpu19prsd.html

http://www.filefactory.com/file/33fis2nw8tuz/

https://openload.co/f/j6M6preCH-4/Na%2520Maloom%2520Afraad%25202%25202017%2520720p%2520TV%2520Urdu%2520GOPISAHI.mkv

https://uptobox.com/xu0p26rbqved

https://uptostream.com/xu0p26rbqved

https://bdupload.info/dj1qyu24qre9

 Na Maloom Afraad 2
(2017) on IMDb


Post a Comment

0 Comments