Search

Nenu Local 2017 x264 720p HD Esub Dual Audio Hindi Telugu GOPISAHI


Format                         : Matroska
Format version                 : Version 4 / Version 2
File size                      : 779 MiB
Duration                       : 2 h 17 min
Overall bit rate               : 792 kb/s
Movie name                     : Nenu Local 2017 GOPISAHI

Video
Format                         : AVC
Format/Info                    : Advanced Video Codec
Codec ID                       : V_MPEG4/ISO/AVC
Duration                       : 2 h 17 min
Bit rate                       : 599 kb/s
Width                          : 1 280 pixels
Height                         : 544 pixels
Display aspect ratio           : 2.35:1
Frame rate mode                : Constant
Frame rate                     : 25.000 FPS
Color space                    : YUV
Chroma subsampling             : 4:2:0
Bit depth                      : 8 bits
Scan type                      : Progressive
Bits/(Pixel*Frame)             : 0.034
Stream size                    : 589 MiB (76%)
Title                          : GOPISAHI
Writing library                : x264 core 155 r2901 7d0ff22

Audio #1
Format                         : AAC
Format/Info                    : Advanced Audio Codec
Duration                       : 2 h 17 min
Bit rate                       : 96.0 kb/s
Channel(s)                     : 2 channels
Channel positions              : Front: L R
Sampling rate                  : 48.0 kHz
Frame rate                     : 46.875 FPS (1024 SPF)
Compression mode               : Lossy
Delay relative to video        : -81 ms
Stream size                    : 93.8 MiB (12%)
Title                          : GOPISAHI
Language                       : Hindi

Audio #2
Format                         : AAC
Format/Info                    : Advanced Audio Codec
Duration                       : 2 h 17 min
Bit rate                       : 96.0 kb/s
Channel(s)                     : 2 channels
Channel positions              : Front: L R
Sampling rate                  : 48.0 kHz
Frame rate                     : 46.875 FPS (1024 SPF)
Compression mode               : Lossy
Delay relative to video        : -37 ms
Stream size                    : 93.5 MiB (12%)
Title                          : GOPISAHI
Language                       : Telugu

Text
Language                       : English



TORRENT

MAGNET

http://1upload.pw/Download.php?url=SE14emIzVVY3bkg1a2ROUlZMT21NaDRreTdrQVRPUGRFeElkUWI4TDVIS3ZRamUrVC9NZVlVK3dVR1g0VC9zSQ==

https://linkstaker.bid/drive/download.php?id=7d56135f926c407ee32d

https://linksclub.biz/drive/download.php?id=e8db6f7abb4366652d8c

https://uploadfiles.pw/05d572b0ecb817d0

https://www.oboom.com/UFNNGY9I

https://megaup.net/hRZ0/Nenu_Local_2017_x264_720p_HD_Esub_Dual_Audio_Hindi_Telugu_GOPISAHI.mkv

https://openload.co/f/T0YBPg-xOgY/Nenu%2520Local%25202017%2520x264%2520720p%2520HD%2520Esub%2520Dual%2520Audio%2520Hindi%2520Telugu%2520GOPISAHI.mkv.mp4

https://vidoza.net/uom3eisdtsd8.html

http://www.filefactory.com/file/5uf11yba59h3/

http://www.indishare.me/g93r79oxt4sn

https://bdupload.info/eo5ni85ljvgh

https://uptobox.com/yeoay04yjauz

https://uptostream.com/yeoay04yjauz


 Nenu Local
(2017) on IMDb

Post a Comment

0 Comments