Search

Paranorman 2012 x264 720p Esub BluRay Dual Audio English Hindi GOPISAHI


Format                         : Matroska
Format version                 : Version 4 / Version 2
File size                      : 698 MiB
Duration                       : 1 h 32 min
Overall bit rate               : 1 057 kb/s
Movie name                     : Paranorman 2012 GOPISAHI

Video
Format                         : AVC
Format/Info                    : Advanced Video Codec
Codec ID                       : V_MPEG4/ISO/AVC
Duration                       : 1 h 32 min
Bit rate                       : 890 kb/s
Width                          : 1 280 pixels
Height                         : 536 pixels
Display aspect ratio           : 2.40:1
Frame rate mode                : Constant
Frame rate                     : 23.976 (24000/1001) FPS
Color space                    : YUV
Chroma subsampling             : 4:2:0
Bit depth                      : 8 bits
Scan type                      : Progressive
Bits/(Pixel*Frame)             : 0.054
Stream size                    : 587 MiB (84%)
Title                          : GOPISAHI
Writing library                : x264 core 125 r2200 999b753

Audio #1
Format                         : AAC
Format/Info                    : Advanced Audio Codec
Duration                       : 1 h 25 min
Bit rate                       : 85.9 kb/s
Channel(s)                     : 6 channels
Channel positions              : Front: L C R, Side: L R, LFE
Sampling rate                  : 44.1 kHz
Frame rate                     : 43.066 FPS (1024 SPF)
Compression mode               : Lossy
Delay relative to video        : -83 ms
Stream size                    : 52.3 MiB (8%)
Title                          : GOPISAHI
Language                       : Hindi

Audio #2
Format                         : AAC
Format/Info                    : Advanced Audio Codec
Duration                       : 1 h 32 min
Bit rate                       : 85.3 kb/s
Channel(s)                     : 6 channels
Channel positions              : Front: L C R, Side: L R, LFE
Sampling rate                  : 44.1 kHz
Frame rate                     : 43.066 FPS (1024 SPF)
Compression mode               : Lossy
Delay relative to video        : -83 ms
Stream size                    : 56.3 MiB (8%)
Title                          : GOPISAHI
Language                       : English

Text
Language                       : English






 ParaNorman
(2012) on IMDb

Post a Comment

1 Comments

  1. Tom and Jerry: Robin Hood and His Merry Mouse in bluray 720p dual audio
    https://oload.site/f/JOLEJh4V9pY#

    ReplyDelete